BitTorrentTracker PerecTracker.org
BitTorrentTracker PerecTracker.org
    
Регистрация  ·  Вход
 
 · 
Забыли пароль?

  • [ATV3] Все о мужчинах (Леонид Марголин) [2016, Россия, Комедия, WEB-DL, HD (1080p)] Original

    Ответить на тему
     
    Автор Сообщение

    rechyn

    Создавать темы 04-Окт-2016 16:25

           

    [Цитировать]

    Все о мужчинах
    -
    4.256 / 10]
    -Год выпуска: 2016
    Страна: Россия
    Жанр: Комедия
    Продолжительность: 01:18:47
    Перевод: Не требуется
    Оригинальная аудиодорожка: Есть
    Cубтитры: Нет
    Режиссёр: Леонид Марголин
    Сценарий: Леонид Марголин, Дмитрий Преснецов, Ярослав Лукашевич
    Продюсер: Михаил Галустян, Армен Ананикян, Алексей Рязанцев
    Оператор: Тим Лобов
    Художник: Давид Дадунашвили, Гульнара Шахмилова
    В ролях: Дмитрий Нагиев, Анна Хилькевич, Игорь Верник, Сергей Белоголовцев, Грант Тохатян, Владимир Епифанцев, Екатерина Скулкина, Елена Борщева, Виктор Степанян, Ян Цапник
    Бюджет: 47 000 000 руб.
    Сборы в России: $1 102 823
    Премьера (РФ): 1 сентября 2016
    Описание: Это история о том, какими разными могут быть мужчины. О том, что мужчины — это, в первую очередь, сложные решения и настоящие поступки. О том, в чем мужчины могут быть сильны, а в чем комичны. О том, за что их можно и нужно любить…-Качество исходника: WEB-DL 1080p (BlueBird)
    Качество: WEB-DL
    Тип: HD (1080p)
    Контейнер: M4V
    Видео: H.264, 1920x804, 2.40:1, 4 592 Kbps, 24.000 fps
    Аудио 1: Русский/Оригинальная дорожка , AAC / 2.0 / 160 Kbps / 48.0 KHz
    Аудио 2: Русский/Оригинальная дорожка , AC-3 / 5.1 / 384 Kbps / 48.0 KHz
    -

    iTunes Meta Tags

    Sort Name: Все о мужчинах
    XID: Apple:vendor_id:2016-976542
    contentID: 1153847888
    Copyright: © 2016 Новый Диск
    Screenwriters: Леонид Марголин, Дмитрий Преснецов, Ярослав Лукашевич
    Producers: Михаил Галустян, Армен Ананикян, Алексей Рязанцев
    Director: Михаил Жерневский, Леонид Марголин
    Cast: Дмитрий Нагиев, Анна Хилькевич, Игорь Верник, Сергей Белоголовцев, Грант Тохатян, Владимир Епифанцев, Екатерина Скулкина, Елена Борщева, Виктор Степанян, Ян Цапник
    Studio: Enjoy Movies, Fresh Film
    Rating: 135
    Long Description: Это история о том, какими разными могут быть мужчины. О том, что мужчины - это, в первую очередь, сложные решения и настоящие поступки. О том, в чем мужчины могут быть сильны, а в чем комичны. О том, за что их можно и нужно любить...
    Description: Это история о том, какими разными могут быть мужчины. О том, что мужчины - это, в первую очередь, сложные решения и настоящие поступки. О том, в чем мужчины могут быть сильны, а в чем комичны. О том, за что их можно и нужно любить...
    Release Date: 2016-01-01T08:00:00Z
    Genre: Русское кино
    Artist: Михаил Жерневский & Леонид Марголин
    Name: Все о мужчинах

    MediaInfo

    General
    Complete name : /Users/imac/HandBrake/Vse.o.mujchinax.WEB-DL.1080p.m4v
    Format : MPEG-4
    Codec ID : M4V
    File size : 2.83 GiB
    Duration : 1h 18mn
    Overall bit rate mode : Variable
    Overall bit rate : 5 140 Kbps
    Movie name : Все о мужчинах
    Performer : Михаил Жерневский & Леонид Марголин
    Director : Михаил Жерневский / Леонид Марголин
    Actor : Дмитрий Нагиев / Анна Хилькевич / Игорь Верник / Сергей Белоголовцев / Грант Тохатян / Владимир Епифанцев / Екатерина Скулкина / Елена Борщева / Виктор Степанян / Ян Цапник
    Screenplay by : Леонид Марголин / Дмитрий Преснецов / Ярослав Лукашевич
    Producer : Михаил Галустян / Армен Ананикян / Алексей Рязанцев
    Production studio : Enjoy Movies, Fresh Film
    Genre : Русское кино
    ContentType : Short Film
    Description : Это история о том, какими разными могут быть мужчины. О том, что мужчины - это, в первую очередь, сложные решения и настоящие поступки. О том, в чем мужчины могут быть сильны, а в чем комичны. О том, за что их можно и нужно любить...
    Recorded date : UTC 2016-01-01 08:00:00
    Encoded date : UTC 2016-10-03 22:08:12
    Tagged date : UTC 2016-10-03 22:10:02
    Copyright : © 2016 Новый Диск
    Cover : Yes
    Rating : None
    Title/Sort : Все о мужчинах
    LongDescription : Это история о том, какими разными могут быть мужчины. О том, что мужчины - это, в первую очередь, сложные решения и настоящие поступки. О том, в чем мужчины могут быть сильны, а в чем комичны. О том, за что их можно и нужно любить...
    AppleStoreCatalogID : 1153847888
    Vendor : Apple:vendor_id:2016-976542
    ContentRating : ru-movie|16+|375|
    Video #1
    ID : 1
    Format : AVC
    Format/Info : Advanced Video Codec
    Format profile : High@L4
    Format settings, CABAC : Yes
    Format settings, ReFrames : 5 frames
    Codec ID : avc1
    Codec ID/Info : Advanced Video Coding
    Duration : 1h 18mn
    Bit rate : 4 592 Kbps
    Width : 1 920 pixels
    Height : 804 pixels
    Display aspect ratio : 2.40:1
    Frame rate mode : Variable
    Frame rate : 24.000 fps
    Minimum frame rate : 23.810 fps
    Maximum frame rate : 24.390 fps
    Color space : YUV
    Chroma subsampling : 4:2:0
    Bit depth : 8 bits
    Scan type : Progressive
    Bits/(Pixel*Frame) : 0.124
    Stream size : 2.53 GiB (89%)
    Title : Main Program
    Language : Russian
    Encoded date : UTC 2016-10-03 22:08:12
    Tagged date : UTC 2016-10-03 22:08:17
    Color range : Limited
    Color primaries : BT.709
    Transfer characteristics : BT.709
    Matrix coefficients : BT.709
    Video #2
    ID : 5
    Format : JPEG
    Codec ID : jpeg
    Duration : 1h 18mn
    Bit rate mode : Variable
    Bit rate : 1 284 bps
    Width : 640 pixels
    Height : 268 pixels
    Display aspect ratio : 2.40:1
    Frame rate mode : Variable
    Frame rate : 0.003 fps
    Minimum frame rate : 0.002 fps
    Maximum frame rate : 0.003 fps
    Color space : YUV
    Chroma subsampling : 4:2:0
    Bit depth : 8 bits
    Compression mode : Lossy
    Bits/(Pixel*Frame) : 2.495
    Stream size : 679 KiB (0%)
    Title : Chapter Images
    Language : Russian
    Encoded date : UTC 2016-10-03 22:08:23
    Tagged date : UTC 2016-10-03 22:08:23
    Audio #1
    ID : 2
    Format : AAC
    Format/Info : Advanced Audio Codec
    Format profile : LC
    Codec ID : 40
    Duration : 1h 18mn
    Bit rate mode : Variable
    Bit rate : 157 Kbps
    Maximum bit rate : 259 Kbps
    Channel(s) : 2 channels
    Channel positions : Front: L R
    Sampling rate : 48.0 KHz
    Compression mode : Lossy
    Stream size : 88.4 MiB (3%)
    Title : Russian Stereo
    Language : Russian
    Encoded date : UTC 2016-10-03 22:08:12
    Tagged date : UTC 2016-10-03 22:08:18
    Audio #2
    ID : 3
    Format : AC-3
    Format/Info : Audio Coding 3
    Mode extension : CM (complete main)
    Format settings, Endianness : Big
    Codec ID : ac-3
    Duration : 1h 18mn
    Bit rate mode : Constant
    Bit rate : 384 Kbps
    Channel(s) : 6 channels
    Channel positions : Front: L C R, Side: L R, LFE
    Sampling rate : 48.0 KHz
    Bit depth : 16 bits
    Compression mode : Lossy
    Stream size : 216 MiB (7%)
    Title : Russian DD 5.1
    Language : Russian
    Encoded date : UTC 2016-10-03 22:08:12
    Tagged date : UTC 2016-10-03 22:08:17
    Menu #1
    00:00:00.000 : Глава 1
    00:05:35.458 : Глава 2
    00:10:38.499 : Глава 3
    00:15:56.207 : Глава 4
    00:21:03.165 : Глава 5
    00:26:53.540 : Глава 6
    00:32:01.956 : Глава 7
    00:37:29.289 : Глава 8
    00:42:48.080 : Глава 9
    00:50:15.080 : Глава 10
    00:56:15.038 : Глава 11
    01:01:25.538 : Глава 12
    01:09:01.288 : Глава 13
    Menu #2
    ID : 4
    Codec ID : text
    Duration : 1h 18mn
    Language : Russian
    Encoded date : UTC 2016-10-03 22:08:18
    Tagged date : UTC 2016-10-03 22:08:18
    00:00:00.000 : Глава 1
    00:05:35.458 : Глава 2
    00:10:38.499 : Глава 3
    00:15:56.207 : Глава 4
    00:21:03.165 : Глава 5
    00:26:53.540 : Глава 6
    00:32:01.956 : Глава 7
    00:37:29.289 : Глава 8
    00:42:48.080 : Глава 9
    00:50:15.080 : Глава 10
    00:56:15.038 : Глава 11
    01:01:25.538 : Глава 12
    01:09:01.288 : Глава 13
    Bit rate mode : VBR

    Скриншоты


    -

    Релиз подготовлен для просмотра на Apple TV, iPad, iPhone, iPod Touch.
    Для просмотра данного релиза на компьютере с ОС Windows рекомендуется использовать VLC media player
    Скачать .torrent

    Скачать торрент-файл бесплатно и на максимальной скорости!

    Как скачивать? · Что такое торрент? · Рейтинг и ограничения

    !ВНИМАНИЕ!
    Сайт не распространяет и не хранит электронные версии произведений, а занимается лишь лишь предоставлением доступа к создаваемому пользователями каталогу ссылок на торрент-файлы, которые содержат только списки хеш-сумм, убедительная просьба с жалобами обращаться напрямую к пользователю. Файлы для обмена на трекере предоставлены пользователями сайта, и администрация не несёт ответственности за их содержание. Просьба не заливать файлы, защищенные авторскими правами, а также файлы нелегального содержания!


    _________________
    [Профиль] [ЛС]
    Показать сообщения:    
    Ответить на тему

    Текущее время: Сегодня, в 22:31

    Часовой пояс: GMT + 2



    Вы не можете начинать темы
    Вы не можете отвечать на сообщения
    Вы не можете редактировать свои сообщения
    Вы не можете удалять свои сообщения
    Вы не можете голосовать в опросах
    Вы не можете прикреплять файлы к сообщениям
    Вы не можете скачивать файлы