BitTorrentTracker PerecTracker.org
BitTorrentTracker PerecTracker.org
    
Регистрация  ·  Вход
 
 · 
Забыли пароль?

  • Discovery: Гангстеры дикой природы / Gangland Killers / 6 серий из 6 [2014, Документальный, познавательный, природа, HDTV 1080i]

    Ответить на тему
     
    Автор Сообщение

    Swager

    Создавать темы 04-Окт-2016 07:08

           

    [Цитировать]

    Гангстеры дикой природы / Gangland Killers-Год выпуска: 2014
    Страна: ЮАР
    Производство: AquaVision TV Productions
    Режиссёр: Питер Ламберти (Peter Lamberti)
    Жанр: Документальный, познавательный, природа
    Продолжительность: 6 x ~00:44:00-Перевод: Студийный (одноголосый закадровый) [Студия АРК ТВ - (Александр Гаврилин, Денис Некрасов, Игорь Тарадайкин)]
    Русские субтитры: нет-Описание: Для многих животных, живущих на бескрайних просторах Африки, существует тонкая грань между жизнью и смертью. Множество хищников, засушливый сезон, недостаток воды и пищи делают жизнь обитателей саванны невыносимо трудной и смертельно опасной. Секрет выживания и процветания отдельных видов кроется в объединённых группах и коллективной охоте, будь то целеустремлённое стадо, сплочённая стая или безжалостная банда.-Источник записи: HDTV-запись с телеканала Animal Planet HD от san007-Тип релиза: HDTV 1080i
    Контейнер: MKV-Видео: AVC H.264, 1920x1080i (16:9), 50i fps, ~10000 kbps, ~0.19,2 bits/pixel
    Аудио 1: Russian, AC3, 48KHz, 5.1 (6 channels), 384 kbps
    Аудио 2: English, AC3, 48KHz, 5.1 (6 channels), 384 kbps-

    Список и описание эпизодов

    E01 Hippo Gangs - Бегемоты
    Идёт война. Война самцов с битвами за территорию, власть и самок. Но главное в сезон засухи в долине реки Луангва - это борьба за выживание. И здесь природа - их главный противник. Одни выживут, другим не повезет... И так будет всегда в любом стаде бегемотов.
    E02 Elephant Gangs - Слоны
    Слоны - крупнейшие наземные млекопитающие планеты. Они величественны, ласковы, преданны семье. Их уважают все... кроме львов и природы. Им не хватает воды и пищи. Поэтому группе слонов приходится мигрировать. Но они не могут оставить своих любимых. Будет ли их преданность стоить им жизни?...
    E03 Mongoose Gangs - Мангусты
    Это семейство мангустов в панике. Вода в дельте реки Окаванго прибывает и уже почти достигла их дома. Пришло время уходить. Предстоящий путь - это череда непрекращающихся испытаний. Прежде чем добраться до цели, они будут рисковать своим здоровьем и жизнью. Часто смекалка важнее размеров. И эта группа полосатых зверьков не остановится ни перед чем на пути к своему новому дому.
    E04 Wild Dog Gangs - Дикие собаки
    Их не просто так зовут дикими собаками. Они беспощадны, безжалостны, жестоки. Но также, они любящие и заботливые. Они заботятся о раненых, молодых и старых особях. Но прежде всего - они одна команда. Стая. Банда. Дикие собаки держатся вместе, поскольку окружены самыми опасными хищниками Африки. Выживут ли они? Убьют ли они для пищи или же будут убиты сами?...
    E05 Buffalo Gangs - Буйволы
    Эти буйволы хотят чтобы их оставили в покое. Они мечтают о безопасных пастбищах, грезят о радостях новой жизни и о мире. Но мира нет! Буйволов преследуют и безжалостно убивают. Эти убийства чудовищны. Пришло время положить этому конец и отомстить. У разъярённых буйволов лучше не вставать на пути...
    E06 Hyena Gangs - Гиены
    Гиены - самые проворные падальщики. Большая стая за 15 минут может съесть антилопу гну полностью: с кожей, мясом, костями и копытами. Оставлять что-то после себя не в правилах гиен. Они созданы для того чтобы выживать и процветать. Наверно поэтому стаей управляют только самки. Ранг в стае определяется жёстко, но так и должно быть. Самое главное, сохранить линию альфа-самки, так как всё будущее стаи зависит от неё.

    Оригинальные постеры от AquaVision

    MediaInfo

    Format : Matroska
    Format version : Version 4 / Version 2
    File size : 3.36 GiB
    Duration : 44mn 5s
    Overall bit rate mode : Variable
    Overall bit rate : 10.9 Mbps
    Movie name : Gangland Killers E02 Elephant Gangs
    Encoded date : UTC 2014-12-30 01:23:15
    Writing application : mkvmerge v7.0.0 ('Where We Going') 64bit
    Writing library : libebml v1.3.0 + libmatroska v1.4.1
    Video
    ID : 1
    Format : AVC
    Format/Info : Advanced Video Codec
    Format profile : High@L4.0
    Format settings, CABAC : Yes
    Format settings, ReFrames : 4 frames
    Codec ID : V_MPEG4/ISO/AVC
    Duration : 44mn 5s
    Bit rate mode : Variable
    Bit rate : 9 926 Kbps
    Maximum bit rate : 40.0 Mbps
    Width : 1 920 pixels
    Height : 1 080 pixels
    Display aspect ratio : 16:9
    Frame rate mode : Constant
    Frame rate : 25.000 fps
    Color space : YUV
    Chroma subsampling : 4:2:0
    Bit depth : 8 bits
    Scan type : MBAFF
    Bits/(Pixel*Frame) : 0.191
    Stream size : 3.06 GiB (91%)
    Default : Yes
    Forced : No
    Color primaries : BT.709
    Transfer characteristics : BT.709
    Matrix coefficients : BT.709
    Audio #1
    ID : 2
    Format : AC-3
    Format/Info : Audio Coding 3
    Mode extension : CM (complete main)
    Format settings, Endianness : Big
    Codec ID : A_AC3
    Duration : 44mn 5s
    Bit rate mode : Constant
    Bit rate : 384 Kbps
    Channel(s) : 6 channels
    Channel positions : Front: L C R, Side: L R, LFE
    Sampling rate : 48.0 KHz
    Bit depth : 16 bits
    Compression mode : Lossy
    Stream size : 121 MiB (4%)
    Title : Russian
    Language : Russian
    Default : Yes
    Forced : No
    Audio #2
    ID : 3
    Format : AC-3
    Format/Info : Audio Coding 3
    Mode extension : CM (complete main)
    Format settings, Endianness : Big
    Codec ID : A_AC3
    Duration : 44mn 5s
    Bit rate mode : Constant
    Bit rate : 384 Kbps
    Channel(s) : 6 channels
    Channel positions : Front: L C R, Side: L R, LFE
    Sampling rate : 48.0 KHz
    Bit depth : 16 bits
    Compression mode : Lossy
    Stream size : 121 MiB (4%)
    Title : English
    Language : English
    Default : No
    Forced : No

    Скриншоты


    Скачать .torrent

    Скачать торрент-файл бесплатно и на максимальной скорости!

    Как скачивать? · Что такое торрент? · Рейтинг и ограничения

    !ВНИМАНИЕ!
    Сайт не распространяет и не хранит электронные версии произведений, а занимается лишь лишь предоставлением доступа к создаваемому пользователями каталогу ссылок на торрент-файлы, которые содержат только списки хеш-сумм, убедительная просьба с жалобами обращаться напрямую к пользователю. Файлы для обмена на трекере предоставлены пользователями сайта, и администрация не несёт ответственности за их содержание. Просьба не заливать файлы, защищенные авторскими правами, а также файлы нелегального содержания!


    _________________
    [Профиль] [ЛС]
    Показать сообщения:    
    Ответить на тему

    Текущее время: Сегодня, в 12:18

    Часовой пояс: GMT + 2



    Вы не можете начинать темы
    Вы не можете отвечать на сообщения
    Вы не можете редактировать свои сообщения
    Вы не можете удалять свои сообщения
    Вы не можете голосовать в опросах
    Вы не можете прикреплять файлы к сообщениям
    Вы не можете скачивать файлы