BitTorrentTracker PerecTracker.org
BitTorrentTracker PerecTracker.org
    
Регистрация  ·  Вход
 
 · 
Забыли пароль?

  • Теория запоя (Наталья Погоничева) [2003, комедия, DVDRip-AVC]

    Ответить на тему
     
    Автор Сообщение

    Flirldrerve

    Создавать темы 03-Окт-2016 23:40

           

    [Цитировать]

    Теория запоя
    Жанр: комедия
    Год выпуска: 2003
    Продолжительность: 01:10:30
    -
    Режиссёр: Наталья Погоничева
    В ролях: Ярослав Бойко, Дина Корзун, Сергей Арцибашев, Галина Петрова, Виктор Сухоруков, Мария Миронова, Станислав Дужников, Евгений Булдаков, Татьяна Киселева, Сергей Шнуров
    -
    Описание: Однажды летчик ушел от простодушной жены и тещи-библиофилки. Ушел, правда, недалеко, в соседний подъезд, к другу Дедулику, который может находиться в жизнеспособном состоянии, только употребляя алкоголь. Так и зажили они. В одной квартире – вечно пьяное мужское братство, как магнитом, притягивающее подгулявших мужичков – от шофера до тракториста, каждому из которых есть что рассказать. А за стенкой – брошенная жена с мамашей, а женщины, как известно, долго не могут оставаться в одиночестве, поэтому и пытаются снова устроить свое счастье...
    -
    Доп. информация: Плавающий кроп: слева и справа.
    -
    Сэмпл: http://sendfile.su/1271003
    -
    Качество видео: DVDRip-AVC (DVD5/Гость)
    Формат видео: MKV
    Видео: 708x468 (1,611:1) @ 754x468, 25 fps, AVC, ~2 767 Kbps, 0.334 bits/pixel
    Аудио: 48 kHz, AC3 Dolby Digital, 2/0 (L,R) ch, ~192 kbps

    MediaInfo

    x264 [info]: frame I:766 Avg QP:15.72 size: 66328
    x264 [info]: frame P:19928 Avg QP:18.12 size: 27528
    x264 [info]: frame B:85074 Avg QP:20.17 size: 10155-General
    Unique ID : 251736366283687850515547515140957422810 (0xBD62A91C899E425687F83BE4A25644DA)
    Complete name : C:\Users\ALEX\Desktop\Фильмы\Теория запоя.2003.DVDRip-AVC.x264.AC3.mkv
    Format : Matroska
    Format version : Version 4 / Version 2
    File size : 1.46 GiB
    Duration : 1 h 10 min
    Overall bit rate : 2 961 kb/s
    Encoded date : UTC 2016-10-03 19:04:45
    Writing application : mkvmerge v8.5.2 ('Crosses') 64bit
    Writing library : libebml v1.3.3 + libmatroska v1.4.4
    Video
    ID : 1
    Format : AVC
    Format/Info : Advanced Video Codec
    Format profile : High@L4.1
    Format settings, CABAC : Yes
    Format settings, ReFrames : 14 frames
    Codec ID : V_MPEG4/ISO/AVC
    Duration : 1 h 10 min
    Bit rate : 2 767 kb/s
    Width : 708 pixels
    Height : 468 pixels
    Display aspect ratio : 16:10
    Frame rate mode : Constant
    Frame rate : 25.000 FPS
    Color space : YUV
    Chroma subsampling : 4:2:0
    Bit depth : 8 bits
    Scan type : Progressive
    Bits/(Pixel*Frame) : 0.334
    Stream size : 1.36 GiB (93%)
    Title : Теория запоя
    Writing library : x264 core 148 r2638 7599210
    Encoding settings : cabac=1 / ref=14 / deblock=1:-2:-1 / analyse=0x3:0x113 / me=umh / subme=11 / psy=1 / psy_rd=1.00:0.10 / mixed_ref=1 / me_range=32 / chroma_me=1 / trellis=2 / 8x8dct=1 / cqm=0 / deadzone=21,11 / fast_pskip=0 / chroma_qp_offset=-3 / threads=6 / lookahead_threads=1 / sliced_threads=0 / nr=0 / decimate=1 / interlaced=0 / bluray_compat=0 / constrained_intra=0 / bframes=10 / b_pyramid=2 / b_adapt=2 / b_bias=0 / direct=3 / weightb=1 / open_gop=0 / weightp=2 / keyint=250 / keyint_min=25 / scenecut=40 / intra_refresh=0 / rc=2pass / mbtree=0 / bitrate=2767 / ratetol=1.0 / qcomp=0.60 / qpmin=0 / qpmax=69 / qpstep=4 / cplxblur=20.0 / qblur=0.5 / ip_ratio=1.40 / pb_ratio=1.30 / aq=1:1.00
    Language : Russian
    Default : No
    Forced : No
    Audio
    ID : 2
    Format : AC-3
    Format/Info : Audio Coding 3
    Mode extension : CM (complete main)
    Format settings, Endianness : Big
    Codec ID : A_AC3
    Duration : 1 h 10 min
    Bit rate mode : Constant
    Bit rate : 192 kb/s
    Channel(s) : 2 channels
    Channel positions : Front: L R
    Sampling rate : 48.0 kHz
    Frame rate : 31.250 FPS (1536 spf)
    Compression mode : Lossy
    Stream size : 96.8 MiB (6%)
    Title : Original
    Language : Russian
    Default : No
    Forced : No

    Скриншоты

    Скачать .torrent

    Скачать торрент-файл бесплатно и на максимальной скорости!

    Как скачивать? · Что такое торрент? · Рейтинг и ограничения

    !ВНИМАНИЕ!
    Сайт не распространяет и не хранит электронные версии произведений, а занимается лишь лишь предоставлением доступа к создаваемому пользователями каталогу ссылок на торрент-файлы, которые содержат только списки хеш-сумм, убедительная просьба с жалобами обращаться напрямую к пользователю. Файлы для обмена на трекере предоставлены пользователями сайта, и администрация не несёт ответственности за их содержание. Просьба не заливать файлы, защищенные авторскими правами, а также файлы нелегального содержания!


    _________________
    [Профиль] [ЛС]
    Показать сообщения:    
    Ответить на тему

    Текущее время: Сегодня, в 18:17

    Часовой пояс: GMT + 2



    Вы не можете начинать темы
    Вы не можете отвечать на сообщения
    Вы не можете редактировать свои сообщения
    Вы не можете удалять свои сообщения
    Вы не можете голосовать в опросах
    Вы не можете прикреплять файлы к сообщениям
    Вы не можете скачивать файлы