BitTorrentTracker PerecTracker.org
BitTorrentTracker PerecTracker.org
    
Регистрация  ·  Вход
 
 · 
Забыли пароль?

  • Джон Картер / John Carter (Эндрю Стэнтон / Andrew Stanton) [2012, США, фантастика, фэнтези, боевик, приключения, BDRip] AVO (Сербин)

    Ответить на тему
     
    Автор Сообщение

    Light

    Создавать темы 03-Окт-2016 23:40

           

    [Цитировать]

    Джон Картер / John Carter-Год выпуска: 2012
    Страна: США / Walt Disney Pictures
    Жанр: фантастика, фэнтези, боевик, приключения
    Продолжительность: 02:12:01
    Перевод: Авторский (одноголосый закадровый) Сербин
    Cубтитры: нет-Режиссер: Эндрю Стэнтон / Andrew Stanton-В ролях: Тейлор Китч, Линн Коллинз, Марк Стронг, Доминик Уэст, Брайан Крэнстон, Саманта Мортон, Уиллем Дефо, Томас Хейден Чёрч, Кирен Хайдз, Джеймс Пьюрфой, Полли Уокер, Дэрил Сабара.-Описание: Джон Картер прошёл всю гражданскую войну и сумел выжить в этой мясорубке. Решив завершить с карьерой военного он становится искателем золота как и многие в то непростое время. Но однажды за ним приходят армейские чины, которым он срочно понадобился, тогда Джон убегая от них попадает в странную пещеру. Его клонит в сон, не успев толком заснуть он просыпается и отделяется от своего тела, теряя сознание. Когда он очнулся то был совершенно гол и находился в незнакомой местности, как он понял позже на Марсе. Попробовав встать он совершил чудовищный по земным меркам прыжок на несколько десятков метров, это его сильно удивило. С трудом научившись передвигаться Картер двинулся в путь по неведомой территории. Буквально через несколько часов он встретил группу туземцев с весьма странной внешностью.-Автор видео: VOLKiGOR-Качество видео: BDRip (исх. John.Carter.2012.BluRay.1080p.AVC.DTS-HD.MA7.1)
    Формат видео: AVI | Sample
    Видео: 720x304 (2.37:1), 23.976 fps, XviD build 65 ~1909 kbps avg, 0.36 bit/pixel
    Аудио: 48 kHz, AC3 Dolby Digital, 3/2 (L,C,R,l,r) + LFE ch, ~448.00 kbps avg | AVO Serbin
    ИнфоФормат : AVI
    Формат/Информация : Audio Video Interleave
    Профиль формата : OpenDML
    Размер файла : 2,18 Гбайт
    Продолжительность : 2 ч. 12 м.
    Общий поток : 2365 Кбит/сек
    Название фильма : Джон Картер / John Carter (2012) BDRip
    Режиссёр : VOLKiGOR
    Программа кодирования : VirtualDubMod 1.5.10.2 (build 2540/release)
    Библиотека кодирования : VirtualDubMod build 2540/release
    Авторское право : hellywood
    Видео
    Идентификатор : 0
    Формат : MPEG-4 Visual
    Профиль формата : Advanced Simple@L5
    Параметр BVOP формата : 2
    Параметр QPel формата : Нет
    Параметр GMC формата : Без точки перехода
    Параметр матрицы формата : Выборочная
    Идентификатор кодека : XVID
    Идентификатор кодека/Подсказка : XviD
    Продолжительность : 2 ч. 12 м.
    Битрейт : 1905 Кбит/сек
    Ширина : 720 пикселей
    Высота : 304 пикселя
    Соотношение сторон : 2,35:1
    Частота кадров : 23,976 (23976/1000) кадра/сек
    Цветовое пространство : YUV
    Субдискретизация насыщенности : 4:2:0
    Битовая глубина : 8 бит
    Тип развёртки : Прогрессивная
    Метод сжатия : С потерями
    Бит/(Пиксели*Кадры) : 0.363
    Размер потока : 1,76 Гбайт (81%)
    Библиотека кодирования : XviD 65
    Аудио
    Идентификатор : 1
    Формат : AC-3
    Формат/Информация : Audio Coding 3
    Расширение режима : CM (complete main)
    Параметр Endianness формата : Big
    Идентификатор кодека : 2000
    Продолжительность : 2 ч. 12 м.
    Вид битрейта : Постоянный
    Битрейт : 448 Кбит/сек
    Каналы : 6 каналов
    Расположение каналов : Front: L C R, Side: L R, LFE
    Частота : 48,0 КГц
    Частота кадров : 31,250 кадров/сек (1536 spf)
    Метод сжатия : С потерями
    Размер потока : 423 Мбайт (19%)
    Выравнивание : Разделение по промежуткам
    Продолжительность промежутка : 42 мс. (1,00 видеокадр)
    Время предзагрузки промежутка : 500 мс.

    Скриншоты

    Скачать .torrent

    Скачать торрент-файл бесплатно и на максимальной скорости!

    Как скачивать? · Что такое торрент? · Рейтинг и ограничения

    !ВНИМАНИЕ!
    Сайт не распространяет и не хранит электронные версии произведений, а занимается лишь лишь предоставлением доступа к создаваемому пользователями каталогу ссылок на торрент-файлы, которые содержат только списки хеш-сумм, убедительная просьба с жалобами обращаться напрямую к пользователю. Файлы для обмена на трекере предоставлены пользователями сайта, и администрация не несёт ответственности за их содержание. Просьба не заливать файлы, защищенные авторскими правами, а также файлы нелегального содержания!


    _________________
    [Профиль] [ЛС]
    Показать сообщения:    
    Ответить на тему

    Текущее время: Сегодня, в 20:18

    Часовой пояс: GMT + 2



    Вы не можете начинать темы
    Вы не можете отвечать на сообщения
    Вы не можете редактировать свои сообщения
    Вы не можете удалять свои сообщения
    Вы не можете голосовать в опросах
    Вы не можете прикреплять файлы к сообщениям
    Вы не можете скачивать файлы