BitTorrentTracker PerecTracker.org
BitTorrentTracker PerecTracker.org
    
Регистрация  ·  Вход
 
 · 
Забыли пароль?

  • Лига смеха. Летний кубок в Юрмале /Ліга Сміху. Літній кубок у Юрмалі (эфир 2016.10.01) SATRip (сезон 2, выпуск 9)

    Ответить на тему
     
    Автор Сообщение

    rechyn

    Создавать темы 03-Окт-2016 20:43

           

    [Цитировать]

    Лига смеха. Летний кубок в Юрмале /Ліга Сміху. Літній кубок у Юрмалі (эфир 2016.10.01) -Телекомпания: 1+1
    Жанр: Юмор
    Выпущено: Украина, Студия "95 квартал", Телеканал "1+1"
    Жюри: Юрий Горбунов, Елена Кравец, Потап, Антон Лирник, Сергей Сивохо и Игорь Ласточкин
    Ведущий: Владимир Зеленский
    Описание:
    В субботу, 28 февраля состоялась премьера телевизионного проекта "Лига смеха" - крупнейшего юмористического шоу в Украине. Участниками первого Чемпионата Украины с юмора стали все желающие: команды КВН, СТЕМы и просто веселые компании. Всего на фестиваль зарегистрировалось 280 команд со всей Украины - Киева, Луганска, Днепропетровска, Львова, Одессы, Тернополя... После просмотра редакторами проекта для телесъемки было отобрано 17 коллективов, которые будут соревноваться за 12 путевок в сезон первого Чемпионата Украины с юмора. Именно эти команды увидят зрители в первом выпуске программы.
    Релиз от: Хотт@быч
    Продолжительность: 01:29:09
    Качество видео: SATRip
    Субтитры: Отсутствуют
    Видео: MPEG4, XviD, 720x400 (16:9), 25.000 fps, 1 796 Kbps (0.249 bit/pixel)
    Аудио: AC-3, 48.0 KHz, 2 ch, 128 Kbps, CBR

    Mediainfo:

    Общее
    Полное имя                               : D:\[1]\Лига смеха\Лига смеха. Сезон 2. Выпуск 9 (2016.10.01).avi
    Формат                                   : AVI
    Формат/Информация                        : Audio Video Interleave
    Размер файла                             : 1,20 Гбайт
    Продолжительность                        : 1 ч. 29 м.
    Общий поток                              : 1933 Кбит/сек
    Программа кодирования                    : VirtualDubMod 1.5.10.3 | www.virtualdub-fr.org || (build 2550/release)
    Библиотека кодирования                   : VirtualDub build 29808/release
    Видео
    Идентификатор                            : 0
    Формат                                   : MPEG-4 Visual
    Профиль формата                          : Advanced Simple@L5
    Параметр BVOP формата                    : 3
    Параметр QPel формата                    : Нет
    Параметр GMC формата                     : Без точки перехода
    Параметр матрицы формата                 : Default (H.263)
    Идентификатор кодека                     : XVID
    Идентификатор кодека/Подсказка           : XviD
    Продолжительность                        : 1 ч. 29 м.
    Битрейт                                  : 1796 Кбит/сек
    Ширина                                   : 720 пикселей
    Высота                                   : 400 пикселей
    Соотношение сторон                       : 16:9
    Частота кадров                           : 25,000 кадров/сек
    Цветовое пространство                    : YUV
    Субдискретизация насыщенности            : 4:2:0
    Битовая глубина                          : 8 бит
    Тип развёртки                            : Прогрессивная
    Метод сжатия                             : С потерями
    Бит/(Пиксели*Кадры)                      : 0.249
    Размер потока                            : 1,12 Гбайт (93%)
    Библиотека кодирования                   : XviD 1.2.1 (UTC 2008-12-04)
    Аудио
    Идентификатор                            : 1
    Формат                                   : AC-3
    Формат/Информация                        : Audio Coding 3
    Расширение режима                        : CM (complete main)
    Параметр Endianness формата              : Big
    Идентификатор кодека                     : 2000
    Продолжительность                        : 1 ч. 29 м.
    Вид битрейта                             : Постоянный
    Битрейт                                  : 128 Кбит/сек
    Каналы                                   : 2 канала
    Расположение каналов                     : Front: L R
    Частота                                  : 48,0 КГц
    Битовая глубина                          : 16 бит
    Метод сжатия                             : С потерями
    Размер потока                            : 81,6 Мбайт (7%)
    Выравнивание                             : Разделение по промежуткам
    Продолжительность промежутка             : 40  мс. (1,00 видеокадр)
    Время предзагрузки промежутка            : 500  мс.

    Скриншоты:
    Скачать .torrent

    Скачать торрент-файл бесплатно и на максимальной скорости!

    Как скачивать? · Что такое торрент? · Рейтинг и ограничения

    !ВНИМАНИЕ!
    Сайт не распространяет и не хранит электронные версии произведений, а занимается лишь лишь предоставлением доступа к создаваемому пользователями каталогу ссылок на торрент-файлы, которые содержат только списки хеш-сумм, убедительная просьба с жалобами обращаться напрямую к пользователю. Файлы для обмена на трекере предоставлены пользователями сайта, и администрация не несёт ответственности за их содержание. Просьба не заливать файлы, защищенные авторскими правами, а также файлы нелегального содержания!


    _________________
    [Профиль] [ЛС]

    vvmalysh

    Создавать темы 03-Окт-2016 20:57 (спустя 13 минут)

           

    [Цитировать]

    смотрел по "ящику" - МОЛОДЦЫ!!!

    _________________

    [Профиль] [ЛС]

    rechyn ®

    Создавать темы 03-Окт-2016 21:26 (спустя 29 минут)

           

    [Цитировать]

    Да, особенно ПРизрачный гонщик с мухой на айфоне. ;)

    _________________
    [Профиль] [ЛС]
    Показать сообщения:    
    Ответить на тему

    Текущее время: Сегодня, в 12:38

    Часовой пояс: GMT + 2



    Вы не можете начинать темы
    Вы не можете отвечать на сообщения
    Вы не можете редактировать свои сообщения
    Вы не можете удалять свои сообщения
    Вы не можете голосовать в опросах
    Вы не можете прикреплять файлы к сообщениям
    Вы не можете скачивать файлы