BitTorrentTracker PerecTracker.org
BitTorrentTracker PerecTracker.org
    
Регистрация  ·  Вход
 
 · 
Забыли пароль?

  • Пустошь / The Barrens (Даррен Линн Боусман / Darren Lynn Bousman) [2012 г., США, Канада, ужасы, триллер, BDRip] MVO (R5)

    Ответить на тему
     
    Автор Сообщение

    Swager

    Создавать темы 03-Окт-2016 20:42

           

    [Цитировать]

    ПустошьThe Barrens-«The terrifying legend of the Jersey Devil is alive»-Год выпуска: 2012
    Страна: США, Канада-Жанр: ужасы, триллер
    Продолжительность: 01:37:16
    Перевод: Профессиональный (многоголосый, закадровый) (R5)
    Субтитры: нет-Режиссер: Даррен Линн Боусман / Darren Lynn Bousman
    Сценарий: Даррен Линн Боусман / Darren Lynn Bousman
    Продюсер: Ричард Саперштейн / Richard Saperstein, Брайан Уиттен / Brian Witten, Даррен Линн Боусман / Darren Lynn Bousman, Джон М. Экерт / John M. Eckert, Армен Агаеян / Armen Aghaeian
    Оператор: Джозеф Уайт / Joseph White
    Композитор: Бобби Джонстон / Bobby Johnston-В ролях: Стивен Мойер (Richard Vineyard), Миа Киршнер (Cynthia Vineyard), Элли МакДональд (Sadie Vineyard), Шон Эшмор (Dale), Питер ДаКуна (Danny Vineyard), Дэвид Кили (Sheriff Winters), Эрик Кнудсен (Ryan), Шамир Андерсон (Dave), Макс Топплин (Zach), Майкл Коупмен (Wyatt Burns), Афина Карканис (Erica), Дж. ЛаРоуз (Ranger Bob)-Описание: Герой фильма взяв семью в поход и не предполагал, что простая вылазка в лес с палатками и рыбацкими принадлежностями выльется в ужасные последствия. Очень скоро он понимает, что его семью преследует знаменитый Дьявол из Джерси - монстр, по слухам обитающий в местечке Pine Barrens, что расположено на юге Нью Джерси.-kinopoisk.ru: 4.471 (744)
    imdb.com: 4.70 (2642)
    MPAA: R - Лицам до 17 лет обязательно присутствие взрослого-Качество: BDRip / BDRemux
    Контейнер: AVI
    Видео: 624x336 (1.86:1), 23.976 fps, XviD build 65 ~932 kbps avg, 0.19 bit/pixel
    Аудио: 48 kHz, MPEG Layer 3, 2 ch, ~128.00 kbps avg-

    MediaInfo

    General
    Complete name                            : E:\The.Barrens.2012.BDRip.MVO.All.Films.avi
    Format                                   : AVI
    Format/Info                              : Audio Video Interleave
    File size                                : 744 MiB
    Duration                                 : 1h 37mn
    Overall bit rate                         : 1 070 Kbps
    Movie name                               : The.Barrens.2012.BDRip.MVO.All.Films
    Director                                 : DIABLO93
    Genre                                    : Thriller
    Writing application                      : VirtualDubMod 1.5.10.3 | www.virtualdub-fr.org || (build 2550/release)
    Original source form/Name                : Movie
    Copyright                                : Rutracker.org (R.G. All Films)
    Video
    ID                                       : 0
    Format                                   : MPEG-4 Visual
    Format profile                           : Advanced Simple@L5
    Format settings, BVOP                    : 2
    Format settings, QPel                    : No
    Format settings, GMC                     : No warppoints
    Format settings, Matrix                  : Custom
    Codec ID                                 : XVID
    Codec ID/Hint                            : XviD
    Duration                                 : 1h 37mn
    Bit rate                                 : 933 Kbps
    Width                                    : 624 pixels
    Height                                   : 336 pixels
    Display aspect ratio                     : 1.85:1
    Frame rate                               : 23.976 fps
    Color space                              : YUV
    Chroma subsampling                       : 4:2:0
    Bit depth                                : 8 bits
    Scan type                                : Progressive
    Compression mode                         : Lossy
    Bits/(Pixel*Frame)                       : 0.186
    Stream size                              : 649 MiB (87%)
    Writing library                          : XviD 65
    Audio
    ID                                       : 1
    Format                                   : MPEG Audio
    Format version                           : Version 1
    Format profile                           : Layer 3
    Codec ID                                 : 55
    Codec ID/Hint                            : MP3
    Duration                                 : 1h 37mn
    Bit rate mode                            : Constant
    Bit rate                                 : 128 Kbps
    Channel(s)                               : 2 channels
    Sampling rate                            : 48.0 KHz
    Compression mode                         : Lossy
    Stream size                              : 89.1 MiB (12%)
    Alignment                                : Aligned on interleaves
    Interleave, duration                     : 42 ms (1.00 video frame)
    Interleave, preload duration             : 504 ms
    Writing library                          : LAME3.99r
    Encoding settings                        : -m s -V 4 -q 2 -lowpass 17 -b 128

    Скриншоты

    Скачать .torrent

    Скачать торрент-файл бесплатно и на максимальной скорости!

    Как скачивать? · Что такое торрент? · Рейтинг и ограничения

    !ВНИМАНИЕ!
    Сайт не распространяет и не хранит электронные версии произведений, а занимается лишь лишь предоставлением доступа к создаваемому пользователями каталогу ссылок на торрент-файлы, которые содержат только списки хеш-сумм, убедительная просьба с жалобами обращаться напрямую к пользователю. Файлы для обмена на трекере предоставлены пользователями сайта, и администрация не несёт ответственности за их содержание. Просьба не заливать файлы, защищенные авторскими правами, а также файлы нелегального содержания!


    _________________
    [Профиль] [ЛС]
    Показать сообщения:    
    Ответить на тему

    Текущее время: Сегодня, в 08:01

    Часовой пояс: GMT + 2



    Вы не можете начинать темы
    Вы не можете отвечать на сообщения
    Вы не можете редактировать свои сообщения
    Вы не можете удалять свои сообщения
    Вы не можете голосовать в опросах
    Вы не можете прикреплять файлы к сообщениям
    Вы не можете скачивать файлы