Register  ·  Log in
Forgot password?

  • Девятая жизнь Луи Дракса / The 9th Life of Louis Drax (Александр Ажа / Alexandre Aja) [2016, Великобритания, Канада, США, триллер, детектив, WEB-DLRip] Dub (iTunes)

    Reply to topic
    Author Message


    Post 03-Oct-2016 20:30



    Девятая жизнь Луи Дракса / The 9th Life of Louis Drax
    Страна: Великобритания, Канада, США
    Жанр: триллер, детектив
    Год выпуска: 2016
    Продолжительность: 01:43:25
    Перевод: Профессиональный (дублированный) iTunes
    Cубтитры: нет
    Режиссер: Александр Ажа / Alexandre Aja
    В ролях: Джейми Дорнан (Dr. Allan Pascal), Эйден Лонгуорт (Louis Drax), Сара Гадон (Natalie), Майкл Адамуэйт (Doctor (C-Section)), Аарон Пол (Peter), Бэкхам Скойе (Louis (Age 2)), Адам Абрамс (Doctor (X-Ray)), Молли Паркер (Dalton), Терри Чен (Elliott), Рэнди Линн (ER Nurse), Джон Хэйнсуорт (ER Patient), Голди Хоффман (ER Nurse)
    Описание: Знаменитый психолог Аллан Паскаль пытается раскрыть тайны, которые хранит сознание 9-летнего Луи Дракса, впавшего в кому после таинственного несчастного случая. Влюбленный в мать мальчика доктор подозревает в случившемся отца. Но чем глубже он погружается в подсознание ребенка, тем сильнее размываются границы между мистикой и реальностью…
    Качество видео: WEB-DLRip
    Формат видео: AVI
    Видео: 720x304 (2.37:1), 25 fps, XviD build 50 ~1622 kbps avg, 0.30 bit/pixel
    Аудио: 48 kHz, AC3 Dolby Digital, 3/2 (L,C,R,l,r) + LFE ch, ~384 kbps


    Complete name : E:\Zona Downloads\Devyataya.jizn.lui.draksa.2O16.D.WEB-DLRip.1.46Gb.avi
    Format : AVI
    Format/Info : Audio Video Interleave
    File size : 1.46 GiB
    Duration : 1h 43mn
    Overall bit rate : 2 017 Kbps
    Movie name : 9ja.zh13Hj.Lui.DPakCa.2O16.D.WEB-DLRip.1.46Gb
    Writing application : VirtualDubMod (build 2540/release)
    Original source form/Name : Movie
    ID : 0
    Format : MPEG-4 Visual
    Format profile : Advanced Simple@L5
    Format settings, BVOP : 2
    Format settings, QPel : No
    Format settings, GMC : No warppoints
    Format settings, Matrix : Default (MPEG)
    Codec ID : XVID
    Codec ID/Hint : XviD
    Duration : 1h 43mn
    Bit rate : 1 623 Kbps
    Width : 720 pixels
    Height : 304 pixels
    Display aspect ratio : 2.35:1
    Frame rate : 25.000 fps
    Color space : YUV
    Chroma subsampling : 4:2:0
    Bit depth : 8 bits
    Scan type : Progressive
    Compression mode : Lossy
    Bits/(Pixel*Frame) : 0.297
    Stream size : 1.17 GiB (80%)
    Writing library : XviD 1.2.1 (UTC 2008-12-04)
    ID : 1
    Format : AC-3
    Format/Info : Audio Coding 3
    Mode extension : CM (complete main)
    Format settings, Endianness : Big
    Codec ID : 2000
    Duration : 1h 43mn
    Bit rate mode : Constant
    Bit rate : 384 Kbps
    Channel(s) : 6 channels
    Channel positions : Front: L C R, Side: L R, LFE
    Sampling rate : 48.0 KHz
    Bit depth : 16 bits
    Compression mode : Lossy
    Stream size : 284 MiB (19%)
    Alignment : Split accross interleaves
    Interleave, duration : 40 ms (1.00 video frame)
    Interleave, preload duration : 500 ms

    Скриншот c названием фильма


    Download .torrent

    Download free and at maximum speed!

    How to Download? · What is a torrent? · Ratings and Limitations

    The site does not extend and does not store electronic(digital) versions of products, and only gives access to a reference catalogue created by users on torrent-files which contain only lists of the hash-sums, the earnest entreaty, with complaints(abuse) to access directly to the user. Files for an exchange on tracker are given by users of a site, and the administration does not bear the responsibility for their maintenance. The request to not fill in the files protected by copyrights, and also files of the illegal maintenance!

    [Profile] [PM]
    Display posts from previous:    
    Reply to topic

    The time now is: Today 11:44

    All times are GMT + 3 Hours

    You cannot post new topics in this forum
    You cannot reply to topics in this forum
    You cannot edit your posts in this forum
    You cannot delete your posts in this forum
    You cannot vote in polls in this forum
    You cannot attach files in this forum
    You cannot download files in this forum