BitTorrentTracker PerecTracker.org
BitTorrentTracker PerecTracker.org
    
Регистрация  ·  Вход
 
 · 
Забыли пароль?

  • Алиса в Зазеркалье / Alice Through the Looking Glass (Джеймс Бобин / James Bobin ) [2016, США, Великобритания, Фэнтези, приключения, семейный, BDRip, HD (720p)] DUB + Original + sub (rus, eng, ukr)

    Ответить на тему
     
    Автор Сообщение

    rechyn

    Создавать темы 03-Окт-2016 15:20

           

    [Цитировать]

    Алиса в Зазеркалье / Alice Through the Looking Glass
    «Весна - самое время сойти с ума»
    6.736 / 10 6.30 / 10
    -Год выпуска: 2016
    Страна: США, Великобритания
    Жанр: Фэнтези, приключения, семейный
    Продолжительность: 01:52:57
    Перевод: Дублированный (iTunes)
    Оригинальная аудиодорожка: Есть
    Cубтитры: Русские форсированные, Английские форсированные, Украинские форсированные, Русские, Английские
    Режиссёр: Джеймс Бобин
    Сценарий: Линда Вулвертон, Льюис Кэрролл
    Продюсер: Тим Бёртон, Джо Рот, Дженнифер Тодд
    Оператор: Стюарт Драйбёрг
    Композитор: Дэнни Элфман
    Художник: Дэн Хенна, Алекс Камерон, Тодд Чернявски
    Монтаж: Эндрю Вайсблум
    В ролях: Миа Васиковска, Джонни Депп, Хелена Бонем Картер, Энн Хэтэуэй, Саша Барон Коэн, Рис Иванс, Мэтт Лукас, Линдси Дункан, Лео Билл, Джеральдин Джеймс
    Бюджет: $170 000 000
    Сборы в США: $77 041 381
    Сборы в мире: + $222 208 124 = $299 249 505
    Сборы в России: $10 340 316
    Мировая премьера: 10 мая 2016
    Премьера (РФ): 26 мая 2016, «WDSSPR»
    Релиз на DVD: 26 августа 2016, «Уолт Дисней Компани СНГ»
    Релиз на Blu-Ray: 26 августа 2016, «Уолт Дисней Компани СНГ»
    Описание: На этот раз главной героине предстоит отправиться в путешествие во времени, полное неожиданностей и ярких открытий, чтобы спасти своего друга, Безумного Шляпника.-Качество исходника: BDRemux (HDClub)
    Качество: BDRip
    Тип: HD (720p)
    Контейнер: M4V
    Видео: H.264, 1280x690, 1.85:1, 4 400 Kbps, 23.976 fps
    Аудио 1: Русский/Дублированный (iTunes), AAC / 2.0 / 160 Kbps / 48.0 KHz
    Аудио 2: Английский/Оригинальная дорожка , AAC / 2.0 / 160 Kbps / 48.0 KHz
    Аудио 3: Украинский/Дублированный (iTunes), AAC / 2.0 / 160 Kbps / 48.0 KHz
    Аудио 4: Русский/Дублированный (iTunes), AC-3 / 5.1 / 384 Kbps / 48.0 KHz
    Аудио 5: Английский/Оригинальная дорожка , AC-3 / 5.1 / 640 Kbps / 48.0 KHz
    Аудио 6: Украинский/Дублированный (iTunes), AC-3 / 5.1 / 384 Kbps / 48.0 KHz
    Субтитры 1: Русские форсированные
    Субтитры 2: Английские форсированные
    Субтитры 3: Украинские форсированные
    Субтитры 4: Русские полные
    Субтитры 5: Английские полные
    -

    iTunes Meta Tags

    Sort Name: Alice Through the Looking Glass
    XID: Apple:vendor_id:2016-723988
    contentID: 1115479244
    Copyright: © 2016 Disney Enterprises, Inc.
    Screenwriters: Линда Вулвертон, Льюис Кэрролл
    Producers: Тим Бёртон, Джо Рот, Дженнифер Тодд
    Director: Джеймс Бобин
    Cast: Миа Васиковска, Джонни Депп, Хелена Бонем Картер, Энн Хэтэуэй, Саша Барон Коэн, Рис Иванс, Мэтт Лукас, Линдси Дункан, Лео Билл, Джеральдин Джеймс
    Studio: Walt Disney Pictures
    Rating Annotation: Rated PG for fantasy/action peril and some language.
    Rating: 3
    Long Description: На этот раз главной героине предстоит отправиться в путешествие во времени, полное неожиданностей и ярких открытий, чтобы спасти своего друга, Безумного Шляпника.
    Description: На этот раз главной героине предстоит отправиться в путешествие во времени, полное неожиданностей и ярких открытий, чтобы спасти своего друга, Безумного Шляпника.
    Release Date: 2016-05-25T08:00:00Z
    Genre: Sci-Fi & Fantasy
    Artist: James Bobin
    Name: Alice Through the Looking Glass (2016)

    MediaInfo

    General
    Complete name : /Users/imac/HandBrake/Alice Through the Looking Glass (720p HD).m4v
    Format : MPEG-4
    Codec ID : M4V
    File size : 4.96 GiB
    Duration : 1h 53mn
    Overall bit rate mode : Variable
    Overall bit rate : 6 275 Kbps
    Movie name : Alice Through the Looking Glass (2016)
    Performer : James Bobin
    Director : Джеймс Бобин
    Actor : Миа Васиковска / Джонни Депп / Хелена Бонем Картер / Энн Хэтэуэй / Саша Барон Коэн / Рис Иванс / Мэтт Лукас / Линдси Дункан / Лео Билл / Джеральдин Джеймс
    Screenplay by : Линда Вулвертон / Льюис Кэрролл
    Producer : Тим Бёртон / Джо Рот / Дженнифер Тодд
    Production studio : Walt Disney Pictures
    Genre : Sci-Fi & Fantasy
    ContentType : Short Film
    Description : На этот раз главной героине предстоит отправиться в путешествие во времени, полное неожиданностей и ярких открытий, чтобы спасти своего друга, Безумного Шляпника.
    Recorded date : UTC 2016-05-25 08:00:00
    Encoded date : UTC 2016-10-03 10:00:16
    Tagged date : UTC 2016-10-03 10:03:58
    Copyright : © 2016 Disney Enterprises, Inc.
    Cover : Yes
    Rating : None
    Title/Sort : Alice Through the Looking Glass
    LongDescription : На этот раз главной героине предстоит отправиться в путешествие во времени, полное неожиданностей и ярких открытий, чтобы спасти своего друга, Безумного Шляпника.
    HDVideo : Yes
    AppleStoreCatalogID : 1115479244
    Vendor : Apple:vendor_id:2016-723988
    ContentRating : mpaa|PG|200|Rated PG for fantasy/action peril and some language.
    Video #1
    ID : 1
    Format : AVC
    Format/Info : Advanced Video Codec
    Format profile : High@L3.1
    Format settings, CABAC : No
    Format settings, ReFrames : 3 frames
    Codec ID : avc1
    Codec ID/Info : Advanced Video Coding
    Duration : 1h 52mn
    Source duration : 1h 52mn
    Bit rate : 4 400 Kbps
    Width : 1 280 pixels
    Height : 690 pixels
    Display aspect ratio : 1.85:1
    Frame rate mode : Variable
    Frame rate : 23.976 fps
    Minimum frame rate : 23.974 fps
    Maximum frame rate : 23.981 fps
    Color space : YUV
    Chroma subsampling : 4:2:0
    Bit depth : 8 bits
    Scan type : Progressive
    Bits/(Pixel*Frame) : 0.208
    Stream size : 3.47 GiB (70%)
    Source stream size : 3.47 GiB (70%)
    Title : Main Program
    Writing library : x264 core 142 r2479 dd79a61
    Encoding settings : cabac=0 / ref=3 / deblock=1:-3:-3 / analyse=0x3:0x113 / me=umh / subme=9 / psy=1 / psy_rd=1.00:0.15 / mixed_ref=1 / me_range=32 / chroma_me=1 / trellis=0 / 8x8dct=1 / cqm=0 / deadzone=21,11 / fast_pskip=0 / chroma_qp_offset=-2 / threads=36 / lookahead_threads=3 / sliced_threads=0 / nr=0 / decimate=0 / interlaced=0 / bluray_compat=0 / constrained_intra=0 / bframes=3 / b_pyramid=0 / b_adapt=2 / b_bias=0 / direct=1 / weightb=0 / open_gop=0 / weightp=0 / keyint=240 / keyint_min=24 / scenecut=40 / intra_refresh=0 / rc_lookahead=40 / rc=2pass / mbtree=1 / bitrate=4400 / ratetol=1.0 / qcomp=0.65 / qpmin=0 / qpmax=69 / qpstep=4 / cplxblur=20.0 / qblur=0.5 / vbv_maxrate=9500 / vbv_bufsize=9500 / nal_hrd=none / filler=0 / ip_ratio=1.40 / aq=1:1.10
    Language : English
    Encoded date : UTC 2016-10-03 10:00:16
    Tagged date : UTC 2016-10-03 10:00:22
    Color range : Limited
    Color primaries : BT.709
    Transfer characteristics : BT.709
    Matrix coefficients : BT.709
    Video #2
    ID : 14
    Format : JPEG
    Codec ID : jpeg
    Duration : 1h 52mn
    Bit rate mode : Variable
    Bit rate : 2 212 bps
    Width : 640 pixels
    Height : 345 pixels
    Display aspect ratio : 1.85:1
    Frame rate mode : Variable
    Frame rate : 0.004 fps
    Minimum frame rate : 0.002 fps
    Maximum frame rate : 0.008 fps
    Color space : YUV
    Chroma subsampling : 4:2:0
    Bit depth : 8 bits
    Compression mode : Lossy
    Bits/(Pixel*Frame) : 2.505
    Stream size : 1.58 MiB (0%)
    Title : Chapter Images
    Language : English
    Encoded date : UTC 2016-10-03 10:01:17
    Tagged date : UTC 2016-10-03 10:01:17
    Audio #1
    ID : 2
    Format : AAC
    Format/Info : Advanced Audio Codec
    Format profile : LC
    Codec ID : 40
    Duration : 1h 53mn
    Bit rate mode : Variable
    Bit rate : 156 Kbps
    Maximum bit rate : 235 Kbps
    Channel(s) : 2 channels
    Channel positions : Front: L R
    Sampling rate : 48.0 KHz
    Compression mode : Lossy
    Stream size : 127 MiB (2%)
    Title : Russian Stereo
    Language : Russian
    Encoded date : UTC 2016-10-03 10:00:16
    Tagged date : UTC 2016-10-03 10:01:10
    Audio #2
    ID : 3
    Format : AAC
    Format/Info : Advanced Audio Codec
    Format profile : LC
    Codec ID : 40
    Duration : 1h 52mn
    Bit rate mode : Variable
    Bit rate : 157 Kbps
    Maximum bit rate : 247 Kbps
    Channel(s) : 2 channels
    Channel positions : Front: L R
    Sampling rate : 48.0 KHz
    Compression mode : Lossy
    Stream size : 127 MiB (2%)
    Title : English Stereo
    Language : English
    Encoded date : UTC 2016-10-03 10:00:16
    Tagged date : UTC 2016-10-03 10:01:10
    Audio #3
    ID : 4
    Format : AAC
    Format/Info : Advanced Audio Codec
    Format profile : LC
    Codec ID : 40
    Duration : 1h 52mn
    Bit rate mode : Variable
    Bit rate : 157 Kbps
    Maximum bit rate : 230 Kbps
    Channel(s) : 2 channels
    Channel positions : Front: L R
    Sampling rate : 48.0 KHz
    Compression mode : Lossy
    Stream size : 127 MiB (2%)
    Title : Ukrainian Stereo
    Language : Ukrainian
    Encoded date : UTC 2016-10-03 10:00:16
    Tagged date : UTC 2016-10-03 10:01:10
    Audio #4
    ID : 5
    Format : AC-3
    Format/Info : Audio Coding 3
    Mode extension : CM (complete main)
    Format settings, Endianness : Big
    Codec ID : ac-3
    Duration : 1h 53mn
    Bit rate mode : Constant
    Bit rate : 384 Kbps
    Channel(s) : 6 channels
    Channel positions : Front: L C R, Side: L R, LFE
    Sampling rate : 48.0 KHz
    Bit depth : 16 bits
    Compression mode : Lossy
    Stream size : 311 MiB (6%)
    Title : Russian DD 5.1
    Language : Russian
    Encoded date : UTC 2016-10-03 10:00:16
    Tagged date : UTC 2016-10-03 10:01:10
    Audio #5
    ID : 6
    Format : AC-3
    Format/Info : Audio Coding 3
    Mode extension : CM (complete main)
    Format settings, Endianness : Big
    Codec ID : ac-3
    Duration : 1h 52mn
    Bit rate mode : Constant
    Bit rate : 640 Kbps
    Channel(s) : 6 channels
    Channel positions : Front: L C R, Side: L R, LFE
    Sampling rate : 48.0 KHz
    Bit depth : 16 bits
    Compression mode : Lossy
    Stream size : 517 MiB (10%)
    Title : English DD 5.1
    Language : English
    Encoded date : UTC 2016-10-03 10:00:16
    Tagged date : UTC 2016-10-03 10:01:10
    Audio #6
    ID : 7
    Format : AC-3
    Format/Info : Audio Coding 3
    Mode extension : CM (complete main)
    Format settings, Endianness : Big
    Codec ID : ac-3
    Duration : 1h 52mn
    Bit rate mode : Constant
    Bit rate : 384 Kbps
    Channel(s) : 6 channels
    Channel positions : Front: L C R, Side: L R, LFE
    Sampling rate : 48.0 KHz
    Bit depth : 16 bits
    Compression mode : Lossy
    Stream size : 310 MiB (6%)
    Title : Ukrainian DD 5.1
    Language : Ukrainian
    Encoded date : UTC 2016-10-03 10:00:16
    Tagged date : UTC 2016-10-03 10:01:10
    Text #1
    ID : 8
    Format : Timed Text
    Muxing mode : sbtl
    Codec ID : tx3g
    Duration : 1h 43mn
    Bit rate mode : Variable
    Bit rate : 0 bps
    Stream size : 135 Bytes (0%)
    Title : Russian forced
    Language : Russian
    Encoded date : UTC 2016-10-03 10:00:16
    Tagged date : UTC 2016-10-03 10:00:59
    Text #2
    ID : 9
    Format : Timed Text
    Muxing mode : sbtl
    Codec ID : tx3g
    Duration : 1h 25mn
    Bit rate : 0 bps
    Stream size : 2.00 Bytes (0%)
    Title : English forced
    Language : English
    Encoded date : UTC 2016-10-03 10:00:16
    Tagged date : UTC 2016-10-03 10:00:16
    Text #3
    ID : 10
    Format : Timed Text
    Muxing mode : sbtl
    Codec ID : tx3g
    Duration : 1h 25mn
    Bit rate mode : Variable
    Bit rate : 0 bps
    Stream size : 121 Bytes (0%)
    Title : Ukrainian forced
    Language : Ukrainian
    Encoded date : UTC 2016-10-03 10:00:16
    Tagged date : UTC 2016-10-03 10:00:23
    Text #4
    ID : 11
    Format : Timed Text
    Muxing mode : sbtl
    Codec ID : tx3g
    Duration : 1h 45mn
    Bit rate mode : Variable
    Bit rate : 79 bps
    Stream size : 60.8 KiB (0%)
    Title : Russian full
    Language : Russian
    Encoded date : UTC 2016-10-03 10:00:16
    Tagged date : UTC 2016-10-03 10:01:07
    Text #5
    ID : 12
    Format : Timed Text
    Muxing mode : sbtl
    Codec ID : tx3g
    Duration : 1h 42mn
    Bit rate mode : Variable
    Bit rate : 51 bps
    Stream size : 38.4 KiB (0%)
    Title : English full
    Language : English
    Encoded date : UTC 2016-10-03 10:00:16
    Tagged date : UTC 2016-10-03 10:01:06
    Menu #1
    00:00:00.000 : Chapter 1
    00:04:33.273 : Chapter 2
    00:07:24.319 : Chapter 3
    00:12:07.518 : Chapter 4
    00:16:39.874 : Chapter 5
    00:22:47.700 : Chapter 6
    00:24:59.707 : Chapter 7
    00:30:18.316 : Chapter 8
    00:35:29.878 : Chapter 9
    00:41:33.074 : Chapter 10
    00:45:20.134 : Chapter 11
    00:51:35.759 : Chapter 12
    00:54:11.123 : Chapter 13
    00:57:40.207 : Chapter 14
    01:04:18.605 : Chapter 15
    01:09:19.072 : Chapter 16
    01:12:46.362 : Chapter 17
    01:18:07.474 : Chapter 18
    01:23:20.329 : Chapter 19
    01:27:34.833 : Chapter 20
    01:32:16.030 : Chapter 21
    01:36:40.545 : Chapter 22
    01:40:12.673 : Chapter 23
    01:43:14.355 : Chapter 24
    Menu #2
    ID : 13
    Codec ID : text
    Duration : 1h 52mn
    Language : English
    Encoded date : UTC 2016-10-03 10:01:10
    Tagged date : UTC 2016-10-03 10:01:10
    00:00:00.000 : Chapter 1
    00:04:33.273 : Chapter 2
    00:07:24.319 : Chapter 3
    00:12:07.518 : Chapter 4
    00:16:39.874 : Chapter 5
    00:22:47.700 : Chapter 6
    00:24:59.707 : Chapter 7
    00:30:18.316 : Chapter 8
    00:35:29.878 : Chapter 9
    00:41:33.074 : Chapter 10
    00:45:20.134 : Chapter 11
    00:51:35.759 : Chapter 12
    00:54:11.123 : Chapter 13
    00:57:40.207 : Chapter 14
    01:04:18.605 : Chapter 15
    01:09:19.072 : Chapter 16
    01:12:46.362 : Chapter 17
    01:18:07.474 : Chapter 18
    01:23:20.329 : Chapter 19
    01:27:34.833 : Chapter 20
    01:32:16.030 : Chapter 21
    01:36:40.545 : Chapter 22
    01:40:12.673 : Chapter 23
    01:43:14.355 : Chapter 24
    Bit rate mode : VBR

    x264 лог

    x264 [info]: frame I:2318  Avg QP:17.98  size:151992
    x264 [info]: frame P:64557 Avg QP:20.20  size: 39148
    x264 [info]: frame B:95633 Avg QP:22.81  size:  8827
    x264 [info]: consecutive B-frames:  6.2% 34.4% 35.2% 24.2%
    x264 [info]: mb I  I16..4:  3.4% 57.5% 39.1%
    x264 [info]: mb P  I16..4:  1.2%  6.0%  3.5%  P16..4: 49.7% 24.3% 10.6%  0.0%  0.0%    skip: 4.8%
    x264 [info]: mb B  I16..4:  0.2%  1.0%  0.6%  B16..8: 42.0%  8.3%  1.3%  direct: 3.1%  skip:43.4%  L0:36.5% L1:54.5% BI: 9.0%
    x264 [info]: 8x8 transform intra:56.2% inter:47.7%
    x264 [info]: coded y,uvDC,uvAC intra: 84.8% 86.9% 60.3% inter: 24.1% 23.1% 12.4%
    x264 [info]: i16 v,h,dc,p: 23% 11%  5% 60%
    x264 [info]: i8 v,h,dc,ddl,ddr,vr,hd,vl,hu: 11%  6%  3% 12% 16% 15% 14% 11% 11%
    x264 [info]: i4 v,h,dc,ddl,ddr,vr,hd,vl,hu: 15%  6%  2% 11% 16% 15% 14% 11%  9%
    x264 [info]: i8c dc,h,v,p: 45% 18% 23% 14%
    x264 [info]: ref P L0: 79.7% 12.3%  8.0%
    x264 [info]: ref B L0: 83.6% 16.4%
    x264 [info]: kb/s:4395.16

    Скриншоты


    -

    Релиз подготовлен для просмотра на Apple TV, iPad, iPhone, iPod Touch.
    Для просмотра данного релиза на компьютере с ОС Windows рекомендуется использовать VLC media player
    Скачать .torrent

    Скачать торрент-файл бесплатно и на максимальной скорости!

    Как скачивать? · Что такое торрент? · Рейтинг и ограничения

    !ВНИМАНИЕ!
    Сайт не распространяет и не хранит электронные версии произведений, а занимается лишь лишь предоставлением доступа к создаваемому пользователями каталогу ссылок на торрент-файлы, которые содержат только списки хеш-сумм, убедительная просьба с жалобами обращаться напрямую к пользователю. Файлы для обмена на трекере предоставлены пользователями сайта, и администрация не несёт ответственности за их содержание. Просьба не заливать файлы, защищенные авторскими правами, а также файлы нелегального содержания!


    _________________
    [Профиль] [ЛС]
    Показать сообщения:    
    Ответить на тему

    Текущее время: Сегодня, в 20:03

    Часовой пояс: GMT + 2



    Вы не можете начинать темы
    Вы не можете отвечать на сообщения
    Вы не можете редактировать свои сообщения
    Вы не можете удалять свои сообщения
    Вы не можете голосовать в опросах
    Вы не можете прикреплять файлы к сообщениям
    Вы не можете скачивать файлы