BitTorrentTracker PerecTracker.org
BitTorrentTracker PerecTracker.org
    
Регистрация  ·  Вход
 
 · 
Забыли пароль?

  • Арк: Ковчег времени / Арка / ARQ (Тони Эллиотт / Tony Elliott) [2016, США, Фантастика, триллер, WEBRip] MVO (NewStudio)

    Ответить на тему
     
    Автор Сообщение

    rechyn

    Создавать темы 02-Окт-2016 20:15

           

    [Цитировать]

    Арк: Ковчег времени / ARQ-Год выхода: 2016
    Выпущено: США / Lost City, MXN Entertainment , XYZ Films
    Жанр: фантастика, триллер
    Продолжительность: 01:27:43
    Перевод: Профессиональный (многоголосый закадровый) NewStudio
    Субтитры: нет-Режиссер:
    Тони Эллиотт / Tony Elliott-В ролях:
    Робби Амелл (Renton), Рэйчел Тейлор (Hannah), Грэй Пауэлл (Father), Джейкоб Нийем (Brother), Шон Бенсон (Sonny), Адам Батчер (Cuz), Джейми Спильчук (Mobius Common)-О фильме:
    Будущее Земли зависит от новой технологии, но на пути к выживании планеты — неожиданный поворот.
    Запертые в лаборатории и застрявшие во временной петле, дезориентированные герои пытаются скрыться от захватчиков в масках, одновременно сохранив новый источник энергии, который может спасти человечество.-Релиз групп
    | | IMDB | КиноПоиск | Сэмпл |-Качество: WEBRip [ARQ 2016 1080p NF WEBRip DD5 1 x264-PiA ]
    Формат: AVI
    Видео: 720x304 (2.37:1), 23.976 fps, XviD build 67 ~1981 kbps avg, 0.38 bit/pixel
    Аудио: 48 kHz, AC3 Dolby Digital, 3/2 (L,C,R,l,r) + LFE ch, ~384 kbps-

    Скриншоты

    -

    MediaInfo

    Общее
    Полное имя                               : D:\ARQ_2016_WEBRip_by_Dalemake.avi
    Формат                                   : AVI
    Формат/Информация                        : Audio Video Interleave
    Размер файла                             : 1,46 Гбайт
    Продолжительность                        : 1 ч. 27 м.
    Общий поток                              : 2375 Кбит/сек
    Программа кодирования                    : VirtualDubMod 1.5.10.3 | www.virtualdub-fr.org || (build 2550/release)
    Библиотека кодирования                   : VirtualDubMod build 2550/release
    Видео
    Идентификатор                            : 0
    Формат                                   : MPEG-4 Visual
    Профиль формата                          : Advanced Simple@L5
    Параметр BVOP формата                    : 1
    Параметр QPel формата                    : Нет
    Параметр GMC формата                     : Без точки перехода
    Параметр матрицы формата                 : Выборочная
    Идентификатор кодека                     : XVID
    Идентификатор кодека/Подсказка           : XviD
    Продолжительность                        : 1 ч. 27 м.
    Битрейт                                  : 1982 Кбит/сек
    Ширина                                   : 720 пикселей
    Высота                                   : 304 пикселя
    Соотношение сторон                       : 2,35:1
    Частота кадров                           : 23,976 кадра/сек
    Цветовое пространство                    : YUV
    Субдискретизация насыщенности            : 4:2:0
    Битовая глубина                          : 8 бит
    Тип развёртки                            : Прогрессивная
    Метод сжатия                             : С потерями
    Бит/(Пиксели*Кадры)                      : 0.378
    Размер потока                            : 1,21 Гбайт (83%)
    Библиотека кодирования                   : XviD 67
    Аудио
    Идентификатор                            : 1
    Формат                                   : AC-3
    Формат/Информация                        : Audio Coding 3
    Расширение режима                        : CM (complete main)
    Параметр Endianness формата              : Big
    Идентификатор кодека                     : 2000
    Продолжительность                        : 1 ч. 27 м.
    Вид битрейта                             : Постоянный
    Битрейт                                  : 384 Кбит/сек
    Каналы                                   : 6 каналов
    Расположение каналов                     : Front: L C R, Side: L R, LFE
    Частота                                  : 48,0 КГц
    Битовая глубина                          : 16 бит
    Метод сжатия                             : С потерями
    Размер потока                            : 241 Мбайт (16%)
    Выравнивание                             : Разделение по промежуткам
    Продолжительность промежутка             : 42  мс. (1,00 видеокадр)
    Время предзагрузки промежутка            : 500  мс.
    -
    Скачать .torrent

    Скачать торрент-файл бесплатно и на максимальной скорости!

    Как скачивать? · Что такое торрент? · Рейтинг и ограничения

    !ВНИМАНИЕ!
    Сайт не распространяет и не хранит электронные версии произведений, а занимается лишь лишь предоставлением доступа к создаваемому пользователями каталогу ссылок на торрент-файлы, которые содержат только списки хеш-сумм, убедительная просьба с жалобами обращаться напрямую к пользователю. Файлы для обмена на трекере предоставлены пользователями сайта, и администрация не несёт ответственности за их содержание. Просьба не заливать файлы, защищенные авторскими правами, а также файлы нелегального содержания!


    _________________
    [Профиль] [ЛС]
    Показать сообщения:    
    Ответить на тему

    Текущее время: Сегодня, в 08:18

    Часовой пояс: GMT + 2



    Вы не можете начинать темы
    Вы не можете отвечать на сообщения
    Вы не можете редактировать свои сообщения
    Вы не можете удалять свои сообщения
    Вы не можете голосовать в опросах
    Вы не можете прикреплять файлы к сообщениям
    Вы не можете скачивать файлы