BitTorrentTracker PerecTracker.org
BitTorrentTracker PerecTracker.org
    
Регистрация  ·  Вход
 
 · 
Забыли пароль?

  • 600 миль / 600 Millas / 600 Miles (Гэбриел Рипштейн / Gabriel Ripstein) [2015, Мексика, США, триллер, драма, BDRip] AVO (Карповский)

    Ответить на тему
     
    Автор Сообщение

    Light

    Создавать темы 02-Окт-2016 20:15

           

    [Цитировать]

    600 миль / 600 Millas / 600 Miles
    Страна: Мексика, США
    Студия: Lucia Films
    Жанр: Триллер, драма
    Год выпуска: 2015
    Продолжительность: 01:20:28
    Перевод: Авторский (одноголосый закадровый) Антон Карповский
    Cубтитры: нет
    Оригинальная аудиодорожка: нет
    Режиссер: Гэбриел Рипштейн / Gabriel Ripstein
    В ролях: Тим Рот, Кристиан Феррер, Моника дель Кармен, Крэйг Хенсли, Харрис Кендалл, Грег Лутс, Дирдри Мойлан, Лиза Пииккиля, Пэйтон Николь Пайпер, Фаусто Олмос Рентерия
    Описание: Однажды, при попытке арестовать подозреваемого, полицейский (Тим Рот) волею случая становится сам пленником у юного преступника (Кристиан Феррер). Тот, будучи новичком в своем криминальном деле, везет связанного полицейского через границу в Мексику, не особо задумываясь над тем, что делать дальше. Это один из основных моментов в фильме. Кому -то он покажется затянутым, а кто-то правильно поймет, что жизнь нам дается не только затем, чтобы прожить ближайшие часы, но и чтобы держать отчет в дальнейшем, возможно, и перед Вечностью. В поездке, паренек проникается диалогами с полицейским, и постепенно, симпатии вчерашнего мальчишки, обречённого изначально жить как попало и где попало, перестраиваются на сочувствие и уважение к солидному стражу порядка. В результате хитросплетений сюжета, паренёк должен сделать нелёгкий выбор - спасти своего пленника или остаться в криминальном деле...
    Дополнительная информация:
    Автор релиза - ylnian
    Заказ перевода у Антона Карповского (сентябрь 2016) - ylnian
    За сборку дороги спасибо rammzez
    Источник для рипа - Blu-Ray (FRA) - 600.Miles.2015.COMPLETE.FR.BLURAY
    Описание - из рецензии Антона Карповского
    Внимание! В переводе присутствует ненормативная лексика!


    Сэмпл: https://yadi.sk/i/Oyrr2pNJvwo8Q
    Качество видео: BDRip
    Формат видео: AVI
    Видео: XviD, 656x352 (1,85:1), 25.000 fps, 1094 kbps, 0.190 bit/pixel
    Аудио: Русский AC3, 48000 Гц, 2ch, 192 kbps

    MediaInfo

    Общее
    Полное имя : D:\600.Millas.2015.BDRip.700mb-ylnian.avi
    Формат : AVI
    Формат/Информация : Audio Video Interleave
    Размер файла : 746 Мбайт
    Продолжительность : 1 ч. 20 м.
    Общий поток : 1296 Кбит/сек
    Программа кодирования : VirtualDubMod 1.5.10.2 (build 2540/release)
    Библиотека кодирования : VirtualDubMod build 2540/release
    Видео
    Идентификатор : 0
    Формат : MPEG-4 Visual
    Профиль формата : Advanced Simple@L5
    Параметр BVOP формата : 1
    Параметр QPel формата : Нет
    Параметр GMC формата : Без точки перехода
    Параметр матрицы формата : Default (MPEG)
    Идентификатор кодека : XVID
    Идентификатор кодека/Подсказка : XviD
    Продолжительность : 1 ч. 20 м.
    Битрейт : 1094 Кбит/сек
    Ширина : 656 пикселей
    Высота : 352 пикселя
    Соотношение сторон : 1,85:1
    Частота кадров : 25,000 кадров/сек
    Цветовое пространство : YUV
    Субдискретизация насыщенности : 4:2:0
    Битовая глубина : 8 бит
    Тип развёртки : Прогрессивная
    Метод сжатия : С потерями
    Бит/(Пиксели*Кадры) : 0.190
    Размер потока : 630 Мбайт (84%)
    Библиотека кодирования : XviD 67
    Аудио
    Идентификатор : 1
    Формат : AC-3
    Формат/Информация : Audio Coding 3
    Расширение режима : CM (complete main)
    Параметр Endianness формата : Big
    Идентификатор кодека : 2000
    Продолжительность : 1 ч. 20 м.
    Вид битрейта : Постоянный
    Битрейт : 192 Кбит/сек
    Каналы : 2 канала
    Расположение каналов : Front: L R
    Частота : 48,0 КГц
    Частота кадров : 31,250 кадров/сек (1536 spf)
    Метод сжатия : С потерями
    Размер потока : 111 Мбайт (15%)
    Выравнивание : Разделение по промежуткам
    Продолжительность промежутка : 40 мс. (1,00 видеокадр)
    Время предзагрузки промежутка : 500 мс.
    Заголовок : RUS - AVO - Karpovsky

    Скриншот c названием фильма

    Скриншоты

    Скачать .torrent

    Скачать торрент-файл бесплатно и на максимальной скорости!

    Как скачивать? · Что такое торрент? · Рейтинг и ограничения

    !ВНИМАНИЕ!
    Сайт не распространяет и не хранит электронные версии произведений, а занимается лишь лишь предоставлением доступа к создаваемому пользователями каталогу ссылок на торрент-файлы, которые содержат только списки хеш-сумм, убедительная просьба с жалобами обращаться напрямую к пользователю. Файлы для обмена на трекере предоставлены пользователями сайта, и администрация не несёт ответственности за их содержание. Просьба не заливать файлы, защищенные авторскими правами, а также файлы нелегального содержания!


    _________________
    [Профиль] [ЛС]
    Показать сообщения:    
    Ответить на тему

    Текущее время: Сегодня, в 10:30

    Часовой пояс: GMT + 2



    Вы не можете начинать темы
    Вы не можете отвечать на сообщения
    Вы не можете редактировать свои сообщения
    Вы не можете удалять свои сообщения
    Вы не можете голосовать в опросах
    Вы не можете прикреплять файлы к сообщениям
    Вы не можете скачивать файлы