BitTorrentTracker PerecTracker.org
BitTorrentTracker PerecTracker.org
    
Регистрация  ·  Вход
 
 · 
Забыли пароль?

  • Вкус к жизни / Le gout du partage / Chef Challenge / Shared Taste (Сандрин Коэн / Sandrine Cohen) [2013, Франция, комедия, драма, DVB] Original (Fre) + Sub (rus)

    Ответить на тему
     
    Автор Сообщение

    Light

    Создавать темы 02-Окт-2016 20:15

           

    [Цитировать]

    Вкус к жизни
    Le goût du partage-Страна: Франция
    Жанр: комедия, драма
    Год выпуска: 2013
    Продолжительность: 01:30:29
    Перевод: Субтитры (перевод М.Лабори, Éclair Group)
    Cубтитры: русские, английские, французские, немецкие, нидерландские
    Оригинальная аудиодорожка: французский
    Режиссер: Сандрин Коэн / Sandrine CohenВ ролях: Бернар Ле Кок / Bernard Le Coq (Victor), Аннелиз Эсм / Annelise Hesme (Annabelle), Ив Пиньо / Yves Pignot (Ferdinand), Борис Релинже / Boris Rehlinger (Richard), Морган Кабо / Morgane Cabot (Justine), Валери Декобер-Корецки / Valérie Decobert-Koretzky (Valérie), Поль Гранье / Paul Granier (Benjamin)
    Описание: Узнав, что он неизлечимо болен, и ему осталось не более двух лет жизни, Виктор решает найти себе замену в руководстве ресторана "У Виктора". Основное условие – кандидат должен быть первоклассным поваром…
    Доп. информация: Hot Bird (13.0°E) TV5MONDE Europe DVB-S

    Качество видео: DVB
    Формат видео: MKV
    Видео: MPEG Video 2, 720x576@1024x576 (16:9), 25 fps, ~2884 kbps avg, 0.278 bit/pixel
    Аудио: MPEG Audio 2, 2 ch, 48 kHz, 192 kbps - французский
    Формат субтитров: softsub (SRT)

    Пример субтитров

    100:01:30,444 --> 00:01:32,569Зеленая и белая спаржа,
    200:01:32,569 --> 00:01:35,246морковь, сельдерей,картошка, кервель...
    300:01:35,246 --> 00:01:38,081Виноград слишком зеленый...
    400:01:38,081 --> 00:01:40,036И ягнятина.
    500:01:40,036 --> 00:01:43,036Сладкий перец.
    600:01:56,808 --> 00:01:59,808В 16:15. Не забудь.
    700:02:05,165 --> 00:02:08,165ВКУС К ЖИЗНИ
    800:02:24,327 --> 00:02:27,327-Первая ученица, шнитт-лук.-Да, шеф!
    900:02:31,964 --> 00:02:34,964Горячо.
    1000:02:36,839 --> 00:02:38,930Ну и гусыня!
    1100:02:38,930 --> 00:02:41,688-Сегодня много народу.-С памятью плохо?
    1200:02:41,688 --> 00:02:44,559Разве у нас когда-нибудьбывает пусто?
    1300:02:44,559 --> 00:02:46,410Пошевеливаемся!
    1400:02:46,410 --> 00:02:49,410Маразматик, закончи ягненка.А ты морковь.
    1500:02:49,443 --> 00:02:50,444Да, шеф!
    1600:02:50,444 --> 00:02:52,963Гусыня, не стой как истукан.
    1700:02:52,963 --> 00:02:55,963-Козий сыр.-Да, шеф!
    1800:02:56,560 --> 00:02:59,560-Шнитт-лук‚ шнитт-лук.-Да.
    1900:03:02,246 --> 00:03:04,802У ВИКТОРАСОБАКАМ И ДЕТЯМ ВХОД ЗАПРЕЩЕН
    2000:03:04,802 --> 00:03:07,476Что ты тут делаешь?Пошел вон! Ну!

    MediaInfo

    GeneralUnique ID : 177122163124574035934410471003663635904 (0x85407CDEFE9670FAA4AF120040B015C0)Complete name : [apreder]Le_gout_du_partage(2013)DVB.mkvFormat : MatroskaFormat version : Version 2File size : 1.98 GiBDuration : 1 h 30 minOverall bit rate : 3 139 kb/sMovie name : Le goût du partageReleased date : 2013-12-03Encoded date : UTC 2016-10-02 15:53:38Writing application : mkvmerge v9.4.2 ('So High') 64bitWriting library : libebml v1.3.4 + libmatroska v1.4.5Cover : YesAttachments : cover.png / small_cover.pngACTOR : Bernard Le Coq, Annelise HesmeDIRECTOR : Sandrine CohenGENRE : ComedyIMDB : tt3371504KEYWORDS : perectracker.orgLAW_RATING : 16+
    VideoID : 1Format : MPEG VideoFormat version : Version 2Format profile : Main@MainFormat settings, BVOP : YesFormat settings, Matrix : CustomFormat settings, GOP : M=4, N=12Format settings, picture structure : FrameCodec ID : V_MPEG2Codec ID/Info : MPEG 1 or 2 VideoDuration : 1 h 30 minBit rate : 2 884 kb/sMaximum bit rate : 3 200 kb/sWidth : 720 pixelsHeight : 576 pixelsDisplay aspect ratio : 16:9Frame rate mode : ConstantFrame rate : 25.000 FPSStandard : PALColor space : YUVChroma subsampling : 4:2:0Bit depth : 8 bitsScan type : InterlacedScan order : Top Field FirstCompression mode : LossyBits/(Pixel*Frame) : 0.278Stream size : 1.82 GiB (92%)Default : YesForced : No
    AudioID : 2Format : MPEG AudioFormat version : Version 1Format profile : Layer 2Mode : Joint stereoMode extension : Intensity Stereo + MS StereoCodec ID : A_MPEG/L2Codec ID/Hint : MP2Duration : 1 h 30 minBit rate mode : ConstantBit rate : 192 kb/sChannel(s) : 2 channelsSampling rate : 48.0 kHzCompression mode : LossyStream size : 124 MiB (6%)Language : FrenchDefault : YesForced : No
    Text #1ID : 3Format : UTF-8Codec ID : S_TEXT/UTF8Codec ID/Info : UTF-8 Plain TextLanguage : RussianDefault : NoForced : No
    Text #2ID : 4Format : UTF-8Codec ID : S_TEXT/UTF8Codec ID/Info : UTF-8 Plain TextLanguage : EnglishDefault : NoForced : No
    Text #3ID : 5Format : UTF-8Codec ID : S_TEXT/UTF8Codec ID/Info : UTF-8 Plain TextLanguage : FrenchDefault : NoForced : No
    Text #4ID : 6Format : UTF-8Codec ID : S_TEXT/UTF8Codec ID/Info : UTF-8 Plain TextLanguage : GermanDefault : NoForced : No
    Text #5ID : 7Format : UTF-8Codec ID : S_TEXT/UTF8Codec ID/Info : UTF-8 Plain TextLanguage : DutchDefault : NoForced : No

    Скриншот c названием фильма

    Скриншоты


    Резервные скриншоты


    -
    Скачать .torrent

    Скачать торрент-файл бесплатно и на максимальной скорости!

    Как скачивать? · Что такое торрент? · Рейтинг и ограничения

    !ВНИМАНИЕ!
    Сайт не распространяет и не хранит электронные версии произведений, а занимается лишь лишь предоставлением доступа к создаваемому пользователями каталогу ссылок на торрент-файлы, которые содержат только списки хеш-сумм, убедительная просьба с жалобами обращаться напрямую к пользователю. Файлы для обмена на трекере предоставлены пользователями сайта, и администрация не несёт ответственности за их содержание. Просьба не заливать файлы, защищенные авторскими правами, а также файлы нелегального содержания!


    _________________
    [Профиль] [ЛС]
    Показать сообщения:    
    Ответить на тему

    Текущее время: Сегодня, в 19:27

    Часовой пояс: GMT + 2



    Вы не можете начинать темы
    Вы не можете отвечать на сообщения
    Вы не можете редактировать свои сообщения
    Вы не можете удалять свои сообщения
    Вы не можете голосовать в опросах
    Вы не можете прикреплять файлы к сообщениям
    Вы не можете скачивать файлы