BitTorrentTracker PerecTracker.org
BitTorrentTracker PerecTracker.org
    
Регистрация  ·  Вход
 
 · 
Забыли пароль?

  • Опровергая Евклида / Вопреки здравому смыслу (Сайдо Курбанов) [2008, мелодрама, криминал, DVDRip]

    Ответить на тему
     
    Автор Сообщение

    Flirldrerve

    Создавать темы 02-Окт-2016 20:15

           

    [Цитировать]

    Опровергая Евклида / Вопреки здравому смыслу
    Жанр: мелодрама, криминал
    Год выпуска: 2008
    Продолжительность: 01:28:59
    Режиссёр: Сайдо Курбанов
    В ролях: Ирина Апексимова, Михаил Хмуров, Андрей Чернышов, Светлана Фатина, Андрей Биланов, Расми Джабраилов, Ирина Яковлева, Александр Симонец, Эдуард Марцевич, Борис Клюев, Юрий Гумиров
    Описание: Преуспевающий ландшафтный дизайнер Марина собирается выйти замуж. В ближайшую субботу должно состояться знакомство ее высокопоставленного отца с женихом Александром. Буквально за день до знаменательной субботы Александр уходит от Марины. В пылу ссоры, Марина выбегает из квартиры, желая остановить Александра, и дверь за ней захлопывается. Открыть ее помогает Марине случайный знакомый, Богдан Прокофьев, как потом выясняется бывший офицер, который недавно вышел из заключения, остался без жилья и без средств к существованию. За что его посадили, Богдан скромно умалчивает. Марина предлагает Богдану исполнить роль жениха перед ее отцом.

    Все раздачи фильма: Вопреки здравому смыслу

    Качество видео: DVDRip
    Формат видео: AVI
    Видео: XviD, 720х416 (1,731:1), 25 кадр/с, ~2000 Кбит/сек, 0,267 bit/pixel
    Аудио: АС3, 48 kHz, 2 (L, R) ch, 192 Кбит/с

    MI

    Общее
    Полное имя                               : C:\otkat\Видео\Vopreki.Zdravomu.Smislu.2008.XviD.DVDRip.Kinozal.TV.avi
    Формат                                   : AVI
    Формат/Информация                        : Audio Video Interleave
    Размер файла                             : 1,37 Гбайт
    Продолжительность                        : 1 ч. 28 м.
    Общий поток                              : 2200 Кбит/сек
    Программа кодирования                    : VirtualDubMod 1.5.4.1 (build 2178/release)
    Библиотека кодирования                   : VirtualDubMod build 2178/release
    Видео
    Идентификатор                            : 0
    Формат                                   : MPEG-4 Visual
    Профиль формата                          : Advanced Simple@L5
    Параметр BVOP формата                    : Нет
    Параметр QPel формата                    : Нет
    Параметр GMC формата                     : Без точки перехода
    Параметр матрицы формата                 : Выборочная
    Идентификатор кодека                     : XVID
    Идентификатор кодека/Подсказка           : XviD
    Продолжительность                        : 1 ч. 28 м.
    Битрейт                                  : 2001 Кбит/сек
    Ширина                                   : 720 пикселей
    Высота                                   : 416 пикселей
    Соотношение сторон                       : 1,731
    Частота кадров                           : 25,000 кадров/сек
    Цветовое пространство                    : YUV
    Субдискретизация насыщенности            : 4:2:0
    Битовая глубина                          : 8 бит
    Тип развёртки                            : Прогрессивная
    Метод сжатия                             : С потерями
    Бит/(Пиксели*Кадры)                      : 0.267
    Размер потока                            : 1,24 Гбайт (91%)
    Библиотека кодирования                   : XviD 1.1.2 (UTC 2006-11-01)
    Аудио
    Идентификатор                            : 1
    Формат                                   : AC-3
    Формат/Информация                        : Audio Coding 3
    Расширение режима                        : CM (complete main)
    Параметр Endianness формата              : Big
    Идентификатор кодека                     : 2000
    Продолжительность                        : 1 ч. 28 м.
    Вид битрейта                             : Постоянный
    Битрейт                                  : 192 Кбит/сек
    Каналы                                   : 2 канала
    Расположение каналов                     : Front: L R
    Частота                                  : 48,0 КГц
    Частота кадров                           : 31,250 кадров/сек (1536 spf)
    Метод сжатия                             : С потерями
    Размер потока                            : 122 Мбайт (9%)
    Выравнивание                             : Разделение по промежуткам
    Продолжительность промежутка             : 96  мс. (2,40 видеокадра)
    Время предзагрузки промежутка            : 96  мс.
    Язык                                     : Russian

    Скриншот с названием фильма

    Скриншоты

    Скачать .torrent

    Скачать торрент-файл бесплатно и на максимальной скорости!

    Как скачивать? · Что такое торрент? · Рейтинг и ограничения

    !ВНИМАНИЕ!
    Сайт не распространяет и не хранит электронные версии произведений, а занимается лишь лишь предоставлением доступа к создаваемому пользователями каталогу ссылок на торрент-файлы, которые содержат только списки хеш-сумм, убедительная просьба с жалобами обращаться напрямую к пользователю. Файлы для обмена на трекере предоставлены пользователями сайта, и администрация не несёт ответственности за их содержание. Просьба не заливать файлы, защищенные авторскими правами, а также файлы нелегального содержания!


    _________________
    [Профиль] [ЛС]
    Показать сообщения:    
    Ответить на тему

    Текущее время: Сегодня, в 06:50

    Часовой пояс: GMT + 2



    Вы не можете начинать темы
    Вы не можете отвечать на сообщения
    Вы не можете редактировать свои сообщения
    Вы не можете удалять свои сообщения
    Вы не можете голосовать в опросах
    Вы не можете прикреплять файлы к сообщениям
    Вы не можете скачивать файлы