BitTorrentTracker PerecTracker.org
BitTorrentTracker PerecTracker.org
    
Регистрация  ·  Вход
 
 · 
Забыли пароль?

  • Angry Birds в кино в 3Д / The Angry Birds Movie 3D (Клэй Кэйтис, Фергал Рейли / Clay Kaytis, Fergal Reilly) [2016, Мультфильм, Боевик, Комедия, Семейный, BDrip] Half OverUnder / Вертикальная анаморфная стереопара

    Ответить на тему
     
    Автор Сообщение

    rechyn

    Создавать темы 02-Окт-2016 20:08

           

    [Цитировать]

    -Angry Birds в кино
    The Angry Birds Movie

    «Что такие сердитые?»
    -Год выпуска: 2016
    Страна: США, Финляндия (Columbia Pictures, Rovio Animation)
    Жанр: Мультфильм, Боевик, Комедия, Семейный
    Продолжительность: 01:37:13
    Перевод: Профессиональный дублированный - Лицензия
    Режиссеры: Клэй Кэйтис, Фергал Рейли / Clay Kaytis, Fergal Reilly-Роли озвучивали (дублировали):

    ............................................................................................................
    Red - Джейсон Судейкис (Александр Цекало)
    Chuck - Джош Гад (Тимур Родригез)
    Bomb - Дэнни МакБрайд (Семен Слепаков)
    Matilda - Майя Рудольф (Елена Шульман)
    Leonard - Билл Хейдер (Сергей Бурунов)
    Mighty Eagle - Питер Динклэйдж (Александр Ревва)
    Terence - Шон Пенн
    Judge Peckinpah - Кигэн-Майкл Ки (Никита Прозоровский)
    Stella / Eva the Birthday Mom - Кейт МакКиннон (Наталия Колодяжная / Алена Фалалеева)
    Ross / Cyrus / Mime - Тони Хейл (Рудольф Панков / Дмитрий Сыендук)
    Edward the Birthday Dad - Хэннибал Бёресс (Денис Некрасов)
    Bird - Джон Лассетер
    -Описание: Фильм расскажет о том, как началось знаменитое противостояние птичек и свинок, персонажей популярной компьютерной игры, а также раскроет некоторые секреты любимых героев.-Премьера: 1 мая 2016 (12 мая 2016)
    Релиз на Blu-Ray (DVD) (Россия): 8 сентября 2016
    Бюджет: 000 000
    Кассовые сборы: 6 582 835

    .
    -Качество: BDRip (by Ash61)
    Контейнер: MKV
    Формат 3D: Half OverUnder / Вертикальная анаморфная стереопара
    Порядок ракурсов: левый ракурс первый-Видео: AVC / 1920х1080p / 23,976 fps / 14.9 Mbps
    Аудио:
    #1 - Русский / AC3 / 48 KHz / 5.1 ch / 640 Kbps (Дубляж - BD NORDiC)
    #2 - Украинский / AC3 / 48 KHz / 5.1 ch / 640 Kbps (Дубляж - BD NORDiC)
    #3 - Английский / AC3 / 48 KHz / 5.1 ch / 640 Kbps (Original - BD 3D)
    Субтитры (SRT):
    Вшитые (softsub):
    #1 - Русские Форсированные (включены по умолчанию)
    #2 - Русские Полные
    #3 - Украинские Форсированные
    #4 - Украинские Полные
    #5 - English Full
    #6 - English Full (fuller)
    #7 - English SDH
    Внешние (UTF-8):
    #1 - Русские Форсированные (включены по умолчанию)
    #2 - Украинские Форсированные

    MediaInfo

    General
    Unique ID : 180026003655821645983579588217532242665 (0x876FBF4350E8261193E8ADB9151EDAE9)
    Complete name : E:\TheAngryBirdsMovie(2016)3D-halfOU(Ash61)\TheAngryBirdsMovie(2016)3D-halfOU(Ash61).mkv
    Format : Matroska
    Format version : Version 2
    File size : 11.6 GiB
    Duration : 1h 37mn
    Overall bit rate : 17.1 Mbps
    Movie name : Angry Birds в кино / The Angry Birds Movie (2016) в 3Д
    Encoded date : UTC 2016-09-07 17:47:51
    Writing application : mkvmerge v5.8.0 ('No Sleep / Pillow') built on Sep 2 2012 15:37:04
    Writing library : libebml v1.2.3 + libmatroska v1.3.0
    Video
    ID : 1
    Format : AVC
    Format/Info : Advanced Video Codec
    Format profile : High@L4.1
    Format settings, CABAC : Yes
    Format settings, ReFrames : 4 frames
    Codec ID : V_MPEG4/ISO/AVC
    Duration : 1h 37mn
    Bit rate : 14.9 Mbps
    Width : 1 920 pixels
    Height : 1 080 pixels
    Display aspect ratio : 16:9
    Frame rate mode : Constant
    Frame rate : 23.976 fps
    Color space : YUV
    Chroma subsampling : 4:2:0
    Bit depth : 8 bits
    Scan type : Progressive
    Bits/(Pixel*Frame) : 0.299
    Stream size : 10.1 GiB (87%)
    Title : BDRip by Ash61
    Writing library : x264 core 146 r2538 121396c
    Encoding settings : cabac=1 / ref=4 / deblock=1:-3:-3 / analyse=0x3:0x113 / me=umh / subme=10 / psy=1 / psy_rd=1.00:0.00 / mixed_ref=1 / me_range=32 / chroma_me=1 / trellis=2 / 8x8dct=1 / cqm=0 / deadzone=21,11 / fast_pskip=1 / chroma_qp_offset=-2 / threads=12 / lookahead_threads=2 / sliced_threads=0 / nr=0 / decimate=1 / interlaced=0 / bluray_compat=0 / constrained_intra=0 / bframes=8 / b_pyramid=2 / b_adapt=2 / b_bias=0 / direct=3 / weightb=1 / open_gop=0 / weightp=2 / keyint=250 / keyint_min=23 / scenecut=40 / intra_refresh=0 / rc_lookahead=60 / rc=crf / mbtree=1 / crf=14.5 / qcomp=0.70 / qpmin=0 / qpmax=69 / qpstep=4 / vbv_maxrate=40000 / vbv_bufsize=30000 / crf_max=0.0 / nal_hrd=none / filler=0 / frame-packing=4 / ip_ratio=1.40 / aq=1:0.70
    Language : English
    Default : Yes
    Forced : No
    Audio #1
    ID : 2
    Format : AC-3
    Format/Info : Audio Coding 3
    Mode extension : CM (complete main)
    Format settings, Endianness : Big
    Codec ID : A_AC3
    Duration : 1h 37mn
    Bit rate mode : Constant
    Bit rate : 640 Kbps
    Channel(s) : 6 channels
    Channel positions : Front: L C R, Side: L R, LFE
    Sampling rate : 48.0 KHz
    Bit depth : 16 bits
    Compression mode : Lossy
    Stream size : 445 MiB (4%)
    Title : Дубляж - BD NORDiC
    Language : Russian
    Default : Yes
    Forced : No
    Audio #2
    ID : 3
    Format : AC-3
    Format/Info : Audio Coding 3
    Mode extension : CM (complete main)
    Format settings, Endianness : Big
    Codec ID : A_AC3
    Duration : 1h 37mn
    Bit rate mode : Constant
    Bit rate : 640 Kbps
    Channel(s) : 6 channels
    Channel positions : Front: L C R, Side: L R, LFE
    Sampling rate : 48.0 KHz
    Bit depth : 16 bits
    Compression mode : Lossy
    Stream size : 445 MiB (4%)
    Title : Дубляж - BD NORDiC
    Language : Ukrainian
    Default : No
    Forced : No
    Audio #3
    ID : 4
    Format : AC-3
    Format/Info : Audio Coding 3
    Mode extension : CM (complete main)
    Format settings, Endianness : Big
    Codec ID : A_AC3
    Duration : 1h 37mn
    Bit rate mode : Constant
    Bit rate : 640 Kbps
    Channel(s) : 6 channels
    Channel positions : Front: L C R, Side: L R, LFE
    Sampling rate : 48.0 KHz
    Bit depth : 16 bits
    Compression mode : Lossy
    Stream size : 445 MiB (4%)
    Title : Original - BD 3D
    Language : English
    Default : No
    Forced : No
    Text #1
    ID : 5
    Format : UTF-8
    Codec ID : S_TEXT/UTF8
    Codec ID/Info : UTF-8 Plain Text
    Title : Форсированные (улучшенные)
    Language : Russian
    Default : Yes
    Forced : No
    Text #2
    ID : 6
    Format : UTF-8
    Codec ID : S_TEXT/UTF8
    Codec ID/Info : UTF-8 Plain Text
    Title : Полные
    Language : Russian
    Default : No
    Forced : No
    Text #3
    ID : 7
    Format : UTF-8
    Codec ID : S_TEXT/UTF8
    Codec ID/Info : UTF-8 Plain Text
    Title : Форсированные (улучшенные)
    Language : Ukrainian
    Default : No
    Forced : No
    Text #4
    ID : 8
    Format : UTF-8
    Codec ID : S_TEXT/UTF8
    Codec ID/Info : UTF-8 Plain Text
    Title : Полные
    Language : Ukrainian
    Default : No
    Forced : No
    Text #5
    ID : 9
    Format : UTF-8
    Codec ID : S_TEXT/UTF8
    Codec ID/Info : UTF-8 Plain Text
    Title : Full
    Language : English
    Default : No
    Forced : No
    Text #6
    ID : 10
    Format : UTF-8
    Codec ID : S_TEXT/UTF8
    Codec ID/Info : UTF-8 Plain Text
    Title : Full (with song)
    Language : English
    Default : No
    Forced : No
    Text #7
    ID : 11
    Format : UTF-8
    Codec ID : S_TEXT/UTF8
    Codec ID/Info : UTF-8 Plain Text
    Title : SDH
    Language : English
    Default : No
    Forced : No
    Menu
    00:00:00.000 : :1
    00:07:05.091 : :2
    00:13:38.107 : :3
    00:20:22.637 : :4
    00:25:38.619 : :5
    00:32:57.392 : :6
    00:38:34.811 : :7
    00:41:36.327 : :8
    00:47:12.954 : :9
    00:52:04.286 : :10
    00:56:07.697 : :11
    00:59:08.710 : :12
    01:03:43.318 : :13
    01:11:45.801 : :14
    01:18:55.521 : :15
    01:23:54.820 : :16

    Скриншоты

    Для оценки 3Д - Анимированные скрины




















    7.09.2016. Релиз обновлён - русская и украинская дороги iTunes заменены на лицензии, улучшены форсированные субтитры.
    Желающие, скачайте заново торрент-файл.
    Скачать .torrent

    Скачать торрент-файл бесплатно и на максимальной скорости!

    Как скачивать? · Что такое торрент? · Рейтинг и ограничения

    !ВНИМАНИЕ!
    Сайт не распространяет и не хранит электронные версии произведений, а занимается лишь лишь предоставлением доступа к создаваемому пользователями каталогу ссылок на торрент-файлы, которые содержат только списки хеш-сумм, убедительная просьба с жалобами обращаться напрямую к пользователю. Файлы для обмена на трекере предоставлены пользователями сайта, и администрация не несёт ответственности за их содержание. Просьба не заливать файлы, защищенные авторскими правами, а также файлы нелегального содержания!


    _________________
    [Профиль] [ЛС]
    Показать сообщения:    
    Ответить на тему

    Текущее время: Сегодня, в 08:11

    Часовой пояс: GMT + 2



    Вы не можете начинать темы
    Вы не можете отвечать на сообщения
    Вы не можете редактировать свои сообщения
    Вы не можете удалять свои сообщения
    Вы не можете голосовать в опросах
    Вы не можете прикреплять файлы к сообщениям
    Вы не можете скачивать файлы