BitTorrentTracker PerecTracker.org
BitTorrentTracker PerecTracker.org
    
Регистрация  ·  Вход
 
 · 
Забыли пароль?

  • Хирургия. Территория любви / Серии: 1-4 из 4 (Роман Бровко) [2016, мелодрама, WEBRip]

    Ответить на тему
     
    Автор Сообщение

    rechyn

    Создавать темы 02-Окт-2016 19:47

           

    [Цитировать]

    Хирургия. Территория любви
    Год выпуска: 2016
    Производство: Star Media
    Жанр: мелодрама
    Продолжительность: 00:45:00
    Субтитры: нет
    Режиссёр: Роман Бровко
    В ролях: Ольга Гришина, Константин самоучка, Дмитрий Пчела, Светлана Зельбет, Владимир Машук, Дарья Панасенко
    Описание: Алина Лукашева счастлива. Заботливый муж Сергей, сын Лешка, уют и тепло в семье. А еще любимая работа. Алина и Сергей работают в хирургии и преданы своему делу всей душой. Но однажды все рушится. На пост завотделением больницы назначают именитого хирурга Егора Котова, в которого 12 лет назад Алина была страстно влюблена. Егор отвечал ей взаимностью, но так и не развелся с женой. Из-за этого они расстались, и Егор не знал, что Алина была от него беременна. Теперь чувства вспыхивают с новой силой...

    Релиз группа
    Все раздачи сериала: Хирургия. Территория любви

    Качество: WEBRip
    Формат: AVI
    Видео кодек: XviD
    Аудио кодек: AC3
    Видео: MPEG-4 Visual, 720х400, 25 кадр/с, ~1600 Кбит/сек, 0,220 bit/pixel
    Аудио: АС3, 48,0 kHz, 2 ch, 192 Кбит/с

    MI

    General
    Complete name                  : X:\раздачи\Хирургия. Территория любви. (2016).WEB-DLRip.RG.Russkie.serialy.&.Files-x.Хирургия. Территория любви. (2016).WEB-DLRip.RG.Russkie.serialy.&.Files-x.avi
    Format                         : AVI
    Format/Info                    : Audio Video Interleave
    File size                      : 600 MiB
    Duration                       : 46mn 58s
    Overall bit rate               : 1 785 Kbps
    Writing application            : VirtualDubMod 1.5.10.3 | www.virtualdub-fr.org || (build 2550/release)
    Writing library                : VirtualDubMod build 2550/release
    Video
    ID                             : 0
    Format                         : MPEG-4 Visual
    Format profile                 : Advanced Simple@L5
    Format settings, BVOP          : 1
    Format settings, QPel          : No
    Format settings, GMC           : No warppoints
    Format settings, Matrix        : Custom
    Codec ID                       : XVID
    Codec ID/Hint                  : XviD
    Duration                       : 46mn 58s
    Bit rate                       : 1 583 Kbps
    Width                          : 720 pixels
    Height                         : 400 pixels
    Display aspect ratio           : 16:9
    Frame rate                     : 25.000 fps
    Color space                    : YUV
    Chroma subsampling             : 4:2:0
    Bit depth                      : 8 bits
    Scan type                      : Progressive
    Compression mode               : Lossy
    Bits/(Pixel*Frame)             : 0.220
    Stream size                    : 532 MiB (89%)
    Writing library                : XviD 73
    Audio
    ID                             : 1
    Format                         : AC-3
    Format/Info                    : Audio Coding 3
    Mode extension                 : CM (complete main)
    Format settings, Endianness    : Big
    Codec ID                       : 2000
    Duration                       : 46mn 58s
    Bit rate mode                  : Constant
    Bit rate                       : 192 Kbps
    Channel(s)                     : 2 channels
    Channel positions              : Front: L R
    Sampling rate                  : 48.0 KHz
    Frame rate                     : 31.250 fps (1536 spf)
    Compression mode               : Lossy
    Stream size                    : 64.5 MiB (11%)
    Alignment                      : Split accross interleaves
    Interleave, duration           : 40 ms (1.00 video frame)
    Interleave, preload duration   : 500 ms

    Скриншоты

    Скачать .torrent

    Скачать торрент-файл бесплатно и на максимальной скорости!

    Как скачивать? · Что такое торрент? · Рейтинг и ограничения

    !ВНИМАНИЕ!
    Сайт не распространяет и не хранит электронные версии произведений, а занимается лишь лишь предоставлением доступа к создаваемому пользователями каталогу ссылок на торрент-файлы, которые содержат только списки хеш-сумм, убедительная просьба с жалобами обращаться напрямую к пользователю. Файлы для обмена на трекере предоставлены пользователями сайта, и администрация не несёт ответственности за их содержание. Просьба не заливать файлы, защищенные авторскими правами, а также файлы нелегального содержания!


    _________________
    [Профиль] [ЛС]
    Показать сообщения:    
    Ответить на тему

    Текущее время: Сегодня, в 22:29

    Часовой пояс: GMT + 2



    Вы не можете начинать темы
    Вы не можете отвечать на сообщения
    Вы не можете редактировать свои сообщения
    Вы не можете удалять свои сообщения
    Вы не можете голосовать в опросах
    Вы не можете прикреплять файлы к сообщениям
    Вы не можете скачивать файлы