Register  ·  Log in
Forgot password?

  • Неваляшка / Серии: 1-4 из 4 (Роман Просвирнин) [2016, Мелодрама, WEBRip]

    Reply to topic
    Author Message


    Post 02-Oct-2016 20:44



    Год выпуска: 2016
    Производство: Русское
    Жанр: Мелодрама
    Продолжительность: 00:50:00
    Субтитры: Нет
    Режиссёр: Роман Просвирнин
    В ролях: Анастасия Мытражик, Дмитрий Миллер, Леонид Громов, Елена Валюшкина, Дмитрий Шаракоис, Роман Курцын, Мария Горбань, Александр Константинов, Николай Лунин (II), Ульяна Куликова, Анатолий Наумов (II)
    Описание: Вале скоро 30 лет, но родители опекают ее, как ребенка, и контролируют каждый шаг. На примете у них есть и кандидат в мужья для дочери – занудный «ботаник» и маменькин сынок Сереженька. Подруга посмеивается над безвольной Валей и зовёт ее «неваляшкой». Однажды Валя решает вырваться из-под родительского крыла и начать жить самостоятельно. Но готова ли изнеженная неваляшка ко взрослой жизни?-Релиз группа: -Все раздачи сериала / Сэмпл-Качество: WEBRip
    Формат: AVI
    Видео кодек: XviD
    Аудио кодек: AC3
    Видео: 720x400 (16:9), 25.000 fps, XviD build 73, 1 948 Kbps, 0.27 bits/pixel
    Аудио: 48.1 kHz, AC3 Dolby Digital, 2 ch, 192 Kbps


    Complete name : \nevalyashkas.avi
    Format : AVI
    Format/Info : Audio Video Interleave
    File size : 44.2 MiB
    Duration : 2mn 52s
    Overall bit rate : 2 150 Kbps
    Writing application : VirtualDubMod (build 2550/release)
    Writing library : VirtualDubMod build 2550/release
    Video #0
    ID : 0
    Format : MPEG-4 Visual
    Format profile : Advanced Simple@L5
    Format settings, BVOP : 1
    Format settings, QPel : No
    Format settings, GMC : No warppoints
    Format settings, Matrix : Custom
    Codec ID : XVID
    Codec ID/Hint : XviD
    Duration : 2mn 52s
    Bit rate : 1 948 Kbps
    Width : 720 pixels
    Height : 400 pixels
    Display aspect ratio : 16:9
    Frame rate : 25.000 fps
    Color space : YUV
    Chroma subsampling : 4:2:0
    Bit depth : 8 bits
    Scan type : Progressive
    Compression mode : Lossy
    Bits/(Pixel*Frame) : 0.271
    Stream size : 40.0 MiB (91%)
    Writing library : XviD 73
    Audio #1
    ID : 1
    Format : AC-3
    Format/Info : Audio Coding 3
    Mode extension : CM (complete main)
    Format settings, Endianness : Big
    Codec ID : 2000
    Duration : 2mn 52s
    Bit rate mode : Constant
    Bit rate : 192 Kbps
    Channel(s) : 2 channels
    Channel positions : Front: L R
    Sampling rate : 48.0 KHz
    Bit depth : 16 bits
    Compression mode : Lossy
    Delay relative to video : 24ms
    Stream size : 3.95 MiB (9%)
    Alignment : Split accross interleaves
    Interleave, duration : 40 ms (1.00 video frame)
    Interleave, preload duration : 500 ms


    Download .torrent

    Download free and at maximum speed!

    How to Download? · What is a torrent? · Ratings and Limitations

    The site does not extend and does not store electronic(digital) versions of products, and only gives access to a reference catalogue created by users on torrent-files which contain only lists of the hash-sums, the earnest entreaty, with complaints(abuse) to access directly to the user. Files for an exchange on tracker are given by users of a site, and the administration does not bear the responsibility for their maintenance. The request to not fill in the files protected by copyrights, and also files of the illegal maintenance!

    [Profile] [PM]
    Display posts from previous:    
    Reply to topic

    The time now is: Today 10:49

    All times are GMT + 3 Hours

    You cannot post new topics in this forum
    You cannot reply to topics in this forum
    You cannot edit your posts in this forum
    You cannot delete your posts in this forum
    You cannot vote in polls in this forum
    You cannot attach files in this forum
    You cannot download files in this forum