BitTorrentTracker PerecTracker.org
BitTorrentTracker PerecTracker.org
    
Регистрация  ·  Вход
 
 · 
Забыли пароль?

  • Неваляшка / Серии: 1-4 из 4 (Роман Просвирнин) [2016, Мелодрама, WEBRip]

    Ответить на тему
     
    Автор Сообщение

    rechyn

    Создавать темы 02-Окт-2016 19:44

           

    [Цитировать]

    Неваляшка
    Год выпуска: 2016
    Производство: Русское
    Жанр: Мелодрама
    Продолжительность: 00:50:00
    Субтитры: Нет
    Режиссёр: Роман Просвирнин
    В ролях: Анастасия Мытражик, Дмитрий Миллер, Леонид Громов, Елена Валюшкина, Дмитрий Шаракоис, Роман Курцын, Мария Горбань, Александр Константинов, Николай Лунин (II), Ульяна Куликова, Анатолий Наумов (II)
    Описание: Вале скоро 30 лет, но родители опекают ее, как ребенка, и контролируют каждый шаг. На примете у них есть и кандидат в мужья для дочери – занудный «ботаник» и маменькин сынок Сереженька. Подруга посмеивается над безвольной Валей и зовёт ее «неваляшкой». Однажды Валя решает вырваться из-под родительского крыла и начать жить самостоятельно. Но готова ли изнеженная неваляшка ко взрослой жизни?-Релиз группа: -Все раздачи сериала / Сэмпл-Качество: WEBRip
    Формат: AVI
    Видео кодек: XviD
    Аудио кодек: AC3
    Видео: 720x400 (16:9), 25.000 fps, XviD build 73, 1 948 Kbps, 0.27 bits/pixel
    Аудио: 48.1 kHz, AC3 Dolby Digital, 2 ch, 192 Kbps

    MI

    General
    Complete name : \nevalyashkas.avi
    Format : AVI
    Format/Info : Audio Video Interleave
    File size : 44.2 MiB
    Duration : 2mn 52s
    Overall bit rate : 2 150 Kbps
    Writing application : VirtualDubMod 1.5.10.3 (build 2550/release)
    Writing library : VirtualDubMod build 2550/release
    Video #0
    ID : 0
    Format : MPEG-4 Visual
    Format profile : Advanced Simple@L5
    Format settings, BVOP : 1
    Format settings, QPel : No
    Format settings, GMC : No warppoints
    Format settings, Matrix : Custom
    Codec ID : XVID
    Codec ID/Hint : XviD
    Duration : 2mn 52s
    Bit rate : 1 948 Kbps
    Width : 720 pixels
    Height : 400 pixels
    Display aspect ratio : 16:9
    Frame rate : 25.000 fps
    Color space : YUV
    Chroma subsampling : 4:2:0
    Bit depth : 8 bits
    Scan type : Progressive
    Compression mode : Lossy
    Bits/(Pixel*Frame) : 0.271
    Stream size : 40.0 MiB (91%)
    Writing library : XviD 73
    Audio #1
    ID : 1
    Format : AC-3
    Format/Info : Audio Coding 3
    Mode extension : CM (complete main)
    Format settings, Endianness : Big
    Codec ID : 2000
    Duration : 2mn 52s
    Bit rate mode : Constant
    Bit rate : 192 Kbps
    Channel(s) : 2 channels
    Channel positions : Front: L R
    Sampling rate : 48.0 KHz
    Bit depth : 16 bits
    Compression mode : Lossy
    Delay relative to video : 24ms
    Stream size : 3.95 MiB (9%)
    Alignment : Split accross interleaves
    Interleave, duration : 40 ms (1.00 video frame)
    Interleave, preload duration : 500 ms

    Скриншоты

    Скачать .torrent

    Скачать торрент-файл бесплатно и на максимальной скорости!

    Как скачивать? · Что такое торрент? · Рейтинг и ограничения

    !ВНИМАНИЕ!
    Сайт не распространяет и не хранит электронные версии произведений, а занимается лишь лишь предоставлением доступа к создаваемому пользователями каталогу ссылок на торрент-файлы, которые содержат только списки хеш-сумм, убедительная просьба с жалобами обращаться напрямую к пользователю. Файлы для обмена на трекере предоставлены пользователями сайта, и администрация не несёт ответственности за их содержание. Просьба не заливать файлы, защищенные авторскими правами, а также файлы нелегального содержания!


    _________________
    [Профиль] [ЛС]
    Показать сообщения:    
    Ответить на тему

    Текущее время: Сегодня, в 10:40

    Часовой пояс: GMT + 2



    Вы не можете начинать темы
    Вы не можете отвечать на сообщения
    Вы не можете редактировать свои сообщения
    Вы не можете удалять свои сообщения
    Вы не можете голосовать в опросах
    Вы не можете прикреплять файлы к сообщениям
    Вы не можете скачивать файлы