BitTorrentTracker PerecTracker.org
BitTorrentTracker PerecTracker.org
    
Регистрация  ·  Вход
 
 · 
Забыли пароль?

  • Прилив / Springfloden / Spring Tide / Сезон: 1 / Серии: 1-10 из 10 (Матиас Олссон / Mattias Ohlsson, Никлас Олсон / Niklas Ohlson) [2016, Швеция, драма, триллер, HDTVRip] DVO (Антон Агапов, Галина Васюкова) + Rus Subs + Original

    Ответить на тему
     
    Автор Сообщение

    rechyn

    Создавать темы 02-Окт-2016 19:39

           

    [Цитировать]

    Прилив / Springfloden / Spring Tide
    Год выпуска: 2016
    Страна: Швеция
    Жанр: Драма, триллер
    Продолжительность: 10 x ~ 00:43:00
    Перевод: Любительский (двухголосый закадровый) Антон Агапов, Галина Васюкова
    Режиссёр: Матиас Олссон / Mattias Ohlsson, Никлас Олсон / Niklas Ohlson
    В ролях: Челль Бергквист, Юлия Рагнарссон, Анна Валландер, Маттиас Сильвелл, Даг Мальмберг, Челль Вильхельмсен, Юхан Видерберг, Хелена Бергстрём
    Описание: Главная героиня сериала — молодая студентка полицейской академии Оливия Рённинг в качестве учебного задания берет нераскрытое дело — в 1987 году на шведском острове Нордкостер тремя неизвестными была закопана в песок, а затем во время прилива, так называемой сизигии утоплена беременная девушка, свидетелем убийства оказался девятилетний мальчик.
    Расследование вел инспектор Том Стилтон, но улик было слишком мало, поэтому дело застопорилось. Спустя 24 года дочь умершего полицейского Оливия вновь дает ход расследованию, поднимая на поверхность то, что покоилось на дне более двадцати лет, и встречает Тома Стилтона, который изменился до неузнаваемости — потерял работу и стал бездомным. Вместе им предстоит раскрыть тайну загадочного убийства.
    Доп. информация: Релиз: Скандинавский калейдоскоп

    Ссылка на предыдущие и альтернативные раздачи: Прилив / Springfloden
    Сэмпл: https://yadi.sk/i/FcOwyIYqw4P3t
    Качество: HDTVRip
    Формат: MKV
    Видео: MPEG4, 1280x720, 16:9, 25.000 fps, 1900 Kbps
    Аудио: MP3, 48.0 KHz, 2 channels, 192 Kbps, Russian
    Аудио 2: AC-3, 48.0 KHz, 6 channels, 448 Kbps, Swedish
    Субтитры: softsub (SRT), Дарья Макеева

    MediaInfo

    General
    Unique ID : 235853921753383849542550282500462340980 (0xB16FD0236DC5E964A74833050383EB74)
    Complete name : E:\Torrent\Springfloden.2016.Season1\Springfloden_2016_1-01.mkv
    Format : Matroska
    Format version : Version 4 / Version 2
    File size : 816 MiB
    Duration : 44mn 0s
    Overall bit rate : 2 591 Kbps
    Encoded date : UTC 2016-03-16 15:04:12
    Writing application : mkvmerge v8.0.0 ('Til The Day That I Die') 64bit
    Writing library : libebml v1.3.1 + libmatroska v1.4.2
    DURATION : 00:44:00.216000000
    NUMBER_OF_FRAMES : 110009
    NUMBER_OF_BYTES : 63365184
    _STATISTICS_WRITING_APP : mkvmerge v8.0.0 ('Til The Day That I Die') 64bit
    _STATISTICS_WRITING_DATE_UTC : 2016-03-16 15:04:12
    _STATISTICS_TAGS : BPS DURATION NUMBER_OF_FRAMES NUMBER_OF_BYTES
    Video
    ID : 1
    Format : AVC
    Format/Info : Advanced Video Codec
    Format profile : High@L4.1
    Format settings, CABAC : Yes
    Format settings, ReFrames : 4 frames
    Codec ID : V_MPEG4/ISO/AVC
    Duration : 44mn 0s
    Bit rate : 1 900 Kbps
    Nominal bit rate : 2 000 Kbps
    Width : 1 280 pixels
    Height : 720 pixels
    Display aspect ratio : 16:9
    Frame rate mode : Constant
    Frame rate : 25.000 fps
    Color space : YUV
    Chroma subsampling : 4:2:0
    Bit depth : 8 bits
    Scan type : Progressive
    Bits/(Pixel*Frame) : 0.082
    Stream size : 598 MiB (73%)
    Writing library : x264 core 142 r2479 dd79a61
    Encoding settings : cabac=1 / ref=3 / deblock=1:0:0 / analyse=0x3:0x113 / me=hex / subme=7 / psy=1 / psy_rd=1.00:0.00 / mixed_ref=1 / me_range=16 / chroma_me=1 / trellis=1 / 8x8dct=1 / cqm=0 / deadzone=21,11 / fast_pskip=1 / chroma_qp_offset=-2 / threads=6 / lookahead_threads=1 / sliced_threads=0 / nr=0 / decimate=1 / interlaced=0 / bluray_compat=0 / constrained_intra=0 / bframes=3 / b_pyramid=2 / b_adapt=1 / b_bias=0 / direct=1 / weightb=1 / open_gop=0 / weightp=2 / keyint=250 / keyint_min=25 / scenecut=40 / intra_refresh=0 / rc_lookahead=40 / rc=abr / mbtree=1 / bitrate=2000 / ratetol=1.0 / qcomp=0.60 / qpmin=0 / qpmax=69 / qpstep=4 / vbv_maxrate=62500 / vbv_bufsize=78125 / nal_hrd=none / filler=0 / ip_ratio=1.40 / aq=1:1.00
    Default : Yes
    Forced : No
    Color primaries : BT.709
    Transfer characteristics : BT.709
    Matrix coefficients : BT.709
    DURATION : 00:43:14.160000000
    NUMBER_OF_FRAMES : 64854
    NUMBER_OF_BYTES : 645845300
    _STATISTICS_WRITING_APP : mkvmerge v8.0.0 ('Til The Day That I Die') 64bit
    _STATISTICS_WRITING_DATE_UTC : 2016-03-16 15:04:12
    _STATISTICS_TAGS : BPS DURATION NUMBER_OF_FRAMES NUMBER_OF_BYTES
    Audio #1
    ID : 2
    Format : MPEG Audio
    Format version : Version 1
    Format profile : Layer 3
    Codec ID : A_MPEG/L3
    Codec ID/Hint : MP3
    Duration : 44mn 0s
    Bit rate mode : Constant
    Bit rate : 192 Kbps
    Channel(s) : 2 channels
    Sampling rate : 48.0 KHz
    Compression mode : Lossy
    Delay relative to video : -80ms
    Stream size : 60.4 MiB (7%)
    Language : Russian
    Default : No
    Forced : No
    DURATION : 00:43:14.176000000
    NUMBER_OF_FRAMES : 81068
    NUMBER_OF_BYTES : 145273856
    _STATISTICS_WRITING_APP : mkvmerge v8.0.0 ('Til The Day That I Die') 64bit
    _STATISTICS_WRITING_DATE_UTC : 2016-03-16 15:04:12
    _STATISTICS_TAGS : BPS DURATION NUMBER_OF_FRAMES NUMBER_OF_BYTES
    Audio #2
    ID : 3
    Format : AC-3
    Format/Info : Audio Coding 3
    Mode extension : CM (complete main)
    Format settings, Endianness : Big
    Codec ID : A_AC3
    Duration : 44mn 0s
    Bit rate mode : Constant
    Bit rate : 448 Kbps
    Channel(s) : 6 channels
    Channel positions : Front: L C R, Side: L R, LFE
    Sampling rate : 48.0 KHz
    Bit depth : 16 bits
    Compression mode : Lossy
    Stream size : 141 MiB (17%)
    Title : Surround
    Language : Swedish
    Default : Yes
    Forced : No
    Text
    ID : 4
    Format : UTF-8
    Codec ID : S_TEXT/UTF8
    Codec ID/Info : UTF-8 Plain Text
    Language : Russian
    Default : Yes
    Forced : No

    Скриншот c названием фильма

    Скриншоты

    Скачать .torrent

    Скачать торрент-файл бесплатно и на максимальной скорости!

    Как скачивать? · Что такое торрент? · Рейтинг и ограничения

    !ВНИМАНИЕ!
    Сайт не распространяет и не хранит электронные версии произведений, а занимается лишь лишь предоставлением доступа к создаваемому пользователями каталогу ссылок на торрент-файлы, которые содержат только списки хеш-сумм, убедительная просьба с жалобами обращаться напрямую к пользователю. Файлы для обмена на трекере предоставлены пользователями сайта, и администрация не несёт ответственности за их содержание. Просьба не заливать файлы, защищенные авторскими правами, а также файлы нелегального содержания!


    _________________
    [Профиль] [ЛС]
    Показать сообщения:    
    Ответить на тему

    Текущее время: Сегодня, в 12:36

    Часовой пояс: GMT + 2



    Вы не можете начинать темы
    Вы не можете отвечать на сообщения
    Вы не можете редактировать свои сообщения
    Вы не можете удалять свои сообщения
    Вы не можете голосовать в опросах
    Вы не можете прикреплять файлы к сообщениям
    Вы не можете скачивать файлы