BitTorrentTracker PerecTracker.org
BitTorrentTracker PerecTracker.org
    
Регистрация  ·  Вход
 
 · 
Забыли пароль?

  • Бумажные цветы (Владимир Харченко) [2016, Мелодрама, SATRip]

    Ответить на тему
     
    Автор Сообщение

    Flirldrerve

    Создавать темы 02-Окт-2016 16:05

           

    [Цитировать]

    Бумажные цветы
    Страна: Украина, Кинокомпания "УПС"
    Жанр: Мелодрама
    Год выпуска: 2016
    Продолжительность: 01:36:42
    Субтитры: Украинские
    Режиссёр: Владимир Харченко
    В ролях: Анна Васильева, Александр Пашков, Дарина Лобода, Илья Паладин, Мария Тарасова, Надежда Козленко, Виталий Иванченков
    Описание: С раннего детства Лика имеет очень серьезные проблемы со зрением. Когда Лика подросла, чтобы хоть как-то помочь семье, она устроилась работать на фабрику, где производят бумажные цветы. Но неожиданно девушку настигает горе - умирает ее отец, а бедная Лика теперь должна заботится еще о брате Алексее и сестричке Насте, которые намного младше нее. К тому же, мачеха сразу после похорон выгоняет детей из дома. Лика, не имея иного выхода, решает временно пожить в сельском доме покойной бабушки, который уже давно пустует. Односельчане всеми способами пытаются помочь бедным детям, однако даже среди них нашлись мерзавцы. Восемнадцатилетний подросток Дима изнасиловал несчастную Лику, а полицейские напрочь отказываются принимать ее заявление. Вскоре после этого Дмитрий загадочным образом умирает, а его мать Тамара пытается забрать у Лики новорожденного ребенка. На помощь Лике приходит брат Томы Иван, который всеми силами защищает девушку и маленького Сашу. Постепенно Иван начинает осознавать, что влюбился в Лику, вот только сама она не желает быть с ним вместе, ведь он является родным дядей парня, который посмел ее изнасиловать
    Релиз группа:
    Сэмпл: http://multi-up.com/1120667
    Качество видео: SATRip
    Формат видео: AVI
    Видео: 720x400 (16:9), 25.000 fps, XviD build 73, 1 825 Kbps
    Аудио: 48.0 kHz, AC3 Dolby Digital, 2 ch, 192 Kbps

    MediaInfo

    General
    Complete name : \Downloads\Bumaznyje.cvety.2016.SATRip.Files-x.avi
    Format : AVI
    Format/Info : Audio Video Interleave
    File size : 1.37 GiB
    Duration : 1h 36mn
    Overall bit rate : 2 027 Kbps
    Writing application : VirtualDubModRus 1.5.10.2 (build 2542/release)
    Writing library : VirtualDubMod build 2542/release
    Video #0
    ID : 0
    Format : MPEG-4 Visual
    Format profile : Advanced Simple@L5
    Format settings, BVOP : 1
    Format settings, QPel : No
    Format settings, GMC : No warppoints
    Format settings, Matrix : Custom
    Codec ID : XVID
    Codec ID/Hint : XviD
    Duration : 1h 36mn
    Bit rate : 1 825 Kbps
    Width : 720 pixels
    Height : 400 pixels
    Display aspect ratio : 16:9
    Frame rate : 25.000 fps
    Color space : YUV
    Chroma subsampling : 4:2:0
    Bit depth : 8 bits
    Scan type : Progressive
    Compression mode : Lossy
    Bits/(Pixel*Frame) : 0.254
    Stream size : 1.23 GiB (90%)
    Writing library : XviD 73
    Audio #1
    ID : 1
    Format : AC-3
    Format/Info : Audio Coding 3
    Mode extension : CM (complete main)
    Format settings, Endianness : Big
    Codec ID : 2000
    Duration : 1h 36mn
    Bit rate mode : Constant
    Bit rate : 192 Kbps
    Channel(s) : 2 channels
    Channel positions : Front: L R
    Sampling rate : 48.0 KHz
    Bit depth : 16 bits
    Compression mode : Lossy
    Stream size : 133 MiB (9%)
    Alignment : Split accross interleaves
    Interleave, duration : 40 ms (1.00 video frame)
    Interleave, preload duration : 500 ms

    Скриншот c названием фильма

    Скриншоты

    Скачать .torrent

    Скачать торрент-файл бесплатно и на максимальной скорости!

    Как скачивать? · Что такое торрент? · Рейтинг и ограничения

    !ВНИМАНИЕ!
    Сайт не распространяет и не хранит электронные версии произведений, а занимается лишь лишь предоставлением доступа к создаваемому пользователями каталогу ссылок на торрент-файлы, которые содержат только списки хеш-сумм, убедительная просьба с жалобами обращаться напрямую к пользователю. Файлы для обмена на трекере предоставлены пользователями сайта, и администрация не несёт ответственности за их содержание. Просьба не заливать файлы, защищенные авторскими правами, а также файлы нелегального содержания!


    _________________
    [Профиль] [ЛС]
    Показать сообщения:    
    Ответить на тему

    Текущее время: Сегодня, в 12:49

    Часовой пояс: GMT + 2



    Вы не можете начинать темы
    Вы не можете отвечать на сообщения
    Вы не можете редактировать свои сообщения
    Вы не можете удалять свои сообщения
    Вы не можете голосовать в опросах
    Вы не можете прикреплять файлы к сообщениям
    Вы не можете скачивать файлы