BitTorrentTracker PerecTracker.org
BitTorrentTracker PerecTracker.org
    
Регистрация  ·  Вход
 
 · 
Забыли пароль?

  • Агент Коди Бэнкс 2: Пункт назначения - Лондон / Agent Cody Banks 2: Destination London (Кевин Аллен / Kevin Allen) [2004, США, боевик, приключения, семейный, комедия, BDRip 720p] Dub (Невафильм) + MVO + AVO (Е. Рудой) + Sub Eng + Original Eng

    Ответить на тему
     
    Автор Сообщение

    Light

    Создавать темы 01-Окт-2016 19:15

           

    [Цитировать]

    Агент Коди Бэнкс 2: Пункт назначения - Лондон
    Страна: США
    Студия: Metro-Goldwyn-Mayer (MGM), Dylan Sellers Productions, Madacy Entertainment Group Inc., Maverick Film
    Жанр: Боевик, приключения, семейный, комедия, криминал
    Год выпуска: 2004
    Продолжительность: 01:40:03
    Перевод #1: Профессиональный (дублированный) Невафильм
    Перевод #2: Профессиональный (многоголосый закадровый)
    Перевод #3: Авторский (одноголосый закадровый) Е. Рудой
    Оригинальная аудио-дорожка: Английская
    Cубтитры: Английские (полные)
    Режиссёр: Кевин Аллен / Kevin Allen
    В ролях: Фрэнки Муниз, Энтони Андерсон, Ханна Спирритт, Синтия Стивенсон, Дэниэл Робак, Анна Чэнселлор, Кит Аллен, Джеймс Фолкнер, Дэвид Келли, Сантьяго Сегура
    Описание: Обычный сиэттловский тинейджер Коди Бэнкс, по совместительству младший секретный агент ЦРУ, снова должен спасать родину. На этот раз он отправляется в Лондон. По легенде он — студент, приехавший учиться по обмену. Однако его главная задача — найти украденное секретное устройство, позволяющее управлять сознанием других людей. Но в ходе операции Бэнкс понимает, что его «операция» — это прикрытие большой аферы, в которую замешано его начальство...

    Тип релиза: BDRip 720p [Исходник: Blu-ray Remux (1080p) от HDClub]
    Контейнер: MKV
    Видео: MPEG-4 AVC, 1280x544 (2.35:1), 4100 Кбит/с, 23.976 кадр/с, 0.246 bit/pixel
    Аудио #1: Русский, Dolby AC3, 48000 Гц, 448 Кбит/с, 6 каналов (5.1) - DUB [Невафильм]
    Аудио #2: Русский, Dolby AC3, 48000 Гц, 448 Кбит/с, 6 каналов (5.1) - MVO
    Аудио #3: Русский, Dolby AC3, 48000 Гц, 640 Кбит/с, 6 каналов (5.1) - AVO [Е. Рудой]
    Аудио #4: Английский, Dolby AC3, 48000 Гц, 640 Кбит/с, 6 каналов (5.1) - Оригинал
    Формат субтитров: softsub (SRT)
    Навигация по главам: Есть

    Автор рипа - ivandubskoj

    x264

    x264 [info]: profile High, level 4.1
    x264 [info]: frame I:1574 Avg QP:16.94 size:109240
    x264 [info]: frame P:35049 Avg QP:19.56 size: 37723
    x264 [info]: frame B:107304 Avg QP:20.98 size: 14725
    x264 [info]: consecutive B-frames: 4.0% 4.9% 12.0% 19.7% 15.2% 35.8% 3.8% 2.4% 1.0% 1.4%

    MediaInfo

    General
    Unique ID : 222421654401645065491338111504329532816 (0xA754DA3A1CD296E680CE664E4E74E590)
    Complete name : Agent.Cody.Banks.2.D.L.2004.BDRip.720p.mkv
    Format : Matroska
    Format version : Version 4 / Version 2
    File size : 4.39 GiB
    Duration : 1h 40mn
    Overall bit rate : 6 275 Kbps
    Movie name : Агент Коди Бэнкс 2: Пункт назначения - Лондон / Agent Cody Banks 2: Destination London (2004) BDRip (720p) от ivandubskoj
    Encoded date : UTC 2016-09-24 11:55:03
    Writing application : mkvmerge v7.9.0 ('Birds') 64bit
    Writing library : libebml v1.3.1 + libmatroska v1.4.2
    Video
    ID : 1
    Format : AVC
    Format/Info : Advanced Video Codec
    Format profile : High@L4.1
    Format settings, CABAC : Yes
    Format settings, ReFrames : 10 frames
    Codec ID : V_MPEG4/ISO/AVC
    Duration : 1h 40mn
    Bit rate : 4 100 Kbps
    Width : 1 280 pixels
    Height : 544 pixels
    Display aspect ratio : 2.35:1
    Frame rate mode : Constant
    Frame rate : 23.976 fps
    Color space : YUV
    Chroma subsampling : 4:2:0
    Bit depth : 8 bits
    Scan type : Progressive
    Bits/(Pixel*Frame) : 0.246
    Stream size : 2.78 GiB (63%)
    Title : Agent Cody Banks 2: Destination London (2004)
    Writing library : x264 core 148 r2597 e86f3a1
    Encoding settings : cabac=1 / ref=10 / deblock=1:-3:-3 / analyse=0x3:0x113 / me=umh / subme=10 / psy=1 / psy_rd=1.00:0.10 / mixed_ref=1 / me_range=32 / chroma_me=1 / trellis=2 / 8x8dct=1 / cqm=0 / deadzone=21,11 / fast_pskip=0 / chroma_qp_offset=-3 / threads=6 / lookahead_threads=1 / sliced_threads=0 / nr=0 / decimate=0 / interlaced=0 / bluray_compat=0 / constrained_intra=0 / bframes=9 / b_pyramid=2 / b_adapt=2 / b_bias=0 / direct=3 / weightb=1 / open_gop=0 / weightp=2 / keyint=240 / keyint_min=23 / scenecut=40 / intra_refresh=0 / rc_lookahead=40 / rc=2pass / mbtree=0 / bitrate=4100 / ratetol=1.0 / qcomp=0.60 / qpmin=0 / qpmax=69 / qpstep=4 / cplxblur=20.0 / qblur=0.5 / vbv_maxrate=50000 / vbv_bufsize=62500 / nal_hrd=none / filler=0 / ip_ratio=1.40 / pb_ratio=1.30 / aq=1:1.00
    Language : English
    Default : Yes
    Forced : No
    Audio #1
    ID : 2
    Format : AC-3
    Format/Info : Audio Coding 3
    Mode extension : CM (complete main)
    Format settings, Endianness : Big
    Codec ID : A_AC3
    Duration : 1h 40mn
    Bit rate mode : Constant
    Bit rate : 448 Kbps
    Channel(s) : 6 channels
    Channel positions : Front: L C R, Side: L R, LFE
    Sampling rate : 48.0 KHz
    Bit depth : 16 bits
    Compression mode : Lossy
    Stream size : 321 MiB (7%)
    Title : DUB [Невафильм]
    Language : Russian
    Default : Yes
    Forced : No
    Audio #2
    ID : 3
    Format : AC-3
    Format/Info : Audio Coding 3
    Mode extension : CM (complete main)
    Format settings, Endianness : Big
    Codec ID : A_AC3
    Duration : 1h 40mn
    Bit rate mode : Constant
    Bit rate : 448 Kbps
    Channel(s) : 6 channels
    Channel positions : Front: L C R, Side: L R, LFE
    Sampling rate : 48.0 KHz
    Bit depth : 16 bits
    Compression mode : Lossy
    Stream size : 321 MiB (7%)
    Title : MVO
    Language : Russian
    Default : No
    Forced : No
    Audio #3
    ID : 4
    Format : AC-3
    Format/Info : Audio Coding 3
    Mode extension : CM (complete main)
    Format settings, Endianness : Big
    Codec ID : A_AC3
    Duration : 1h 40mn
    Bit rate mode : Constant
    Bit rate : 640 Kbps
    Channel(s) : 6 channels
    Channel positions : Front: L C R, Side: L R, LFE
    Sampling rate : 48.0 KHz
    Bit depth : 16 bits
    Compression mode : Lossy
    Stream size : 458 MiB (10%)
    Title : AVO [Е. Рудой]
    Language : Russian
    Default : No
    Forced : No
    Audio #4
    ID : 5
    Format : AC-3
    Format/Info : Audio Coding 3
    Mode extension : CM (complete main)
    Format settings, Endianness : Big
    Codec ID : A_AC3
    Duration : 1h 40mn
    Bit rate mode : Constant
    Bit rate : 640 Kbps
    Channel(s) : 6 channels
    Channel positions : Front: L C R, Side: L R, LFE
    Sampling rate : 48.0 KHz
    Bit depth : 16 bits
    Compression mode : Lossy
    Stream size : 458 MiB (10%)
    Title : Original
    Language : English
    Default : No
    Forced : No
    Text
    ID : 6
    Format : UTF-8
    Codec ID : S_TEXT/UTF8
    Codec ID/Info : UTF-8 Plain Text
    Title : Full
    Language : English
    Default : No
    Forced : No
    Menu
    00:00:00.000 : en:Chapter 1
    00:00:10.927 : en:Chapter 2
    00:08:57.954 : en:Chapter 3
    00:20:36.151 : en:Chapter 4
    00:32:11.471 : en:Chapter 5
    00:46:52.684 : en:Chapter 6
    01:02:11.644 : en:Chapter 7
    01:14:12.364 : en:Chapter 8
    01:30:38.975 : en:Chapter 9

    Скриншоты

    Скачать .torrent

    Скачать торрент-файл бесплатно и на максимальной скорости!

    Как скачивать? · Что такое торрент? · Рейтинг и ограничения

    !ВНИМАНИЕ!
    Сайт не распространяет и не хранит электронные версии произведений, а занимается лишь лишь предоставлением доступа к создаваемому пользователями каталогу ссылок на торрент-файлы, которые содержат только списки хеш-сумм, убедительная просьба с жалобами обращаться напрямую к пользователю. Файлы для обмена на трекере предоставлены пользователями сайта, и администрация не несёт ответственности за их содержание. Просьба не заливать файлы, защищенные авторскими правами, а также файлы нелегального содержания!


    _________________
    [Профиль] [ЛС]
    Показать сообщения:    
    Ответить на тему

    Текущее время: Сегодня, в 04:13

    Часовой пояс: GMT + 2



    Вы не можете начинать темы
    Вы не можете отвечать на сообщения
    Вы не можете редактировать свои сообщения
    Вы не можете удалять свои сообщения
    Вы не можете голосовать в опросах
    Вы не можете прикреплять файлы к сообщениям
    Вы не можете скачивать файлы