BitTorrentTracker PerecTracker.org
BitTorrentTracker PerecTracker.org
    
Регистрация  ·  Вход
 
 · 
Забыли пароль?

  • Чудеса своего рода / Нечто замечательное / Some Kind of Wonderful (Ховард Дойч / Howard Deutch) [1987, США, комедия, мелодрама, драма, WEB-DL 1080p] MVO + VO + Original Eng + Sub Rus, Eng

    Ответить на тему
     
    Автор Сообщение

    Light

    Создавать темы 01-Окт-2016 19:15

           

    [Цитировать]

    Чудеса своего рода / Нечто замечательное / Some Kind of Wonderful
    Страна: США
    Студия: Hughes Entertainment, Paramount Pictures
    Жанр: Комедия, мелодрама, драма
    Год выпуска: 1987
    Продолжительность: 01:34:38
    Перевод 1: Любительский (многоголосый закадровый) релиз-группа Причудики
    Перевод 2: Любительский (одноголосый закадровый) anotherred
    Cубтитры: русские, английские (все - внешние)
    Оригинальная аудиодорожка: английский
    Режиссер: Ховард Дойч / Howard Deutch
    В ролях: Эрик Штольц, Мэри Стюарт Мастерсон, Леа Томпсон, Крэйг Шеффер, Джон Эштон, Элиас Котеас, Молли Хэган, Мэдди Корман, Джейн Эллиот, Кэндис Камерон, Чина Филлипс, Скотт Коффи, Кармин Кариди, Ли Гарлингтон
    Описание: Один из самых успешных молодёжных хитов 1980-х годов. Кит Нельсон мечтает о самой популярной девушке в школе и не замечает, что его лучшая подруга Уоттс в него влюблена. Уоттс решает помочь другу добиться красотки, и постепенно Кит понимает, кто ему на самом деле нужен.
    Дополнительная информация:
    Автор релиза - ylnian
    Источник - Some Kind of Wonderful 1987 1080p WEB-DL DD5 1 H 264 HKD
    За исходные русские субтитры спасибо Егор Погодин
    Полная переработка русских субтитров и исправление ошибок - ylnian
    Перевод 2014 года от релиз-группы Причудики: Оксана Тимофеева, Ленар Гиматдинов, Никита Пугач и С Причудами. Перевод на русский язык для озвучивания - Osmosis Johnes
    Дорога с любительской одноголосой озвучкой от anotherred взата здесь, спасибо patrickswaize
    Есть навигация по главам


    Сэмпл: https://yadi.sk/i/YTTsHf5Avvtz2
    Качество видео: WEB-DL 1080p
    Формат видео: MKV
    Видео: MPEG-4, 1912x1072 (16:9), 23.976 fps, 5205 kbps, 0.106 bit/pixel
    Аудио 1: Русский AC3, 48000 Гц, 6ch, 384 kbps - MVO
    Аудио 2: Русский AC3, 48000 Гц, 6ch, 448 kbps - VO
    Аудио 2: Английский AC3, 48000 Гц, 6ch, 384 kbps
    Формат субтитров: softsub (SRT)

    MediaInfo

    Общее
    Уникальный идентификатор : 240754637153085471890712875570674164713 (0xB51FA810030727D08FCC79D0DE1E63E9)
    Полное имя : F:\Some.Kind.of.Wonderful.1987.WEB-DL.1080p-ylnian.mkv
    Формат : Matroska
    Версия формата : Version 4 / Version 2
    Размер файла : 4,25 Гбайт
    Продолжительность : 1 ч. 34 м.
    Общий поток : 6423 Кбит/сек
    Название фильма : Some.Kind.of.Wonderful.1987.WEB-DL.1080p-ylnian
    Дата кодирования : UTC 2016-08-25 04:09:35
    Программа кодирования : mkvmerge v9.3.1 ('Mask Machine') 64bit
    Библиотека кодирования : libebml v1.3.4 + libmatroska v1.4.5
    Видео
    Идентификатор : 1
    Формат : AVC
    Формат/Информация : Advanced Video Codec
    Профиль формата : High@L4
    Параметр CABAC формата : Да
    Параметр ReFrames формата : 4 кадра
    Идентификатор кодека : V_MPEG4/ISO/AVC
    Продолжительность : 1 ч. 34 м.
    Битрейт : 5205 Кбит/сек
    Ширина : 1912 пикселей
    Высота : 1072 пикселя
    Соотношение сторон : 16:9
    Режим частоты кадров : Постоянный
    Частота кадров : 23,976 (24000/1001) кадра/сек
    Цветовое пространство : YUV
    Субдискретизация насыщенности : 4:2:0
    Битовая глубина : 8 бит
    Тип развёртки : Прогрессивная
    Бит/(Пиксели*Кадры) : 0.106
    Размер потока : 3,44 Гбайт (81%)
    Заголовок : Some Kind of Wonderful 1987 1080p WEB-DL DD5 1 H 264 HKD
    Язык : English
    Default : Да
    Forced : Да
    Цветовой диапазон : Limited
    Основные цвета : BT.709
    Характеристики трансфера : BT.709
    Коэффициенты матрицы : BT.709
    Аудио #1
    Идентификатор : 2
    Формат : AC-3
    Формат/Информация : Audio Coding 3
    Расширение режима : CM (complete main)
    Параметр Endianness формата : Big
    Идентификатор кодека : A_AC3
    Продолжительность : 1 ч. 34 м.
    Вид битрейта : Постоянный
    Битрейт : 384 Кбит/сек
    Каналы : 6 каналов
    Расположение каналов : Front: L C R, Side: L R, LFE
    Частота : 48,0 КГц
    Частота кадров : 31,250 кадров/сек (1536 spf)
    Метод сжатия : С потерями
    Размер потока : 260 Мбайт (6%)
    Заголовок : MVO (AC3 5.1 384 kbps)
    Язык : Russian
    Default : Да
    Forced : Да
    Аудио #2
    Идентификатор : 3
    Формат : AC-3
    Формат/Информация : Audio Coding 3
    Расширение режима : CM (complete main)
    Параметр Endianness формата : Big
    Идентификатор кодека : A_AC3
    Продолжительность : 1 ч. 34 м.
    Вид битрейта : Постоянный
    Битрейт : 448 Кбит/сек
    Каналы : 6 каналов
    Расположение каналов : Front: L C R, Side: L R, LFE
    Частота : 48,0 КГц
    Частота кадров : 31,250 кадров/сек (1536 spf)
    Метод сжатия : С потерями
    Размер потока : 303 Мбайт (7%)
    Заголовок : VO (AC3 5.1 448 kbps)
    Язык : Russian
    Default : Нет
    Forced : Нет
    Аудио #3
    Идентификатор : 4
    Формат : AC-3
    Формат/Информация : Audio Coding 3
    Расширение режима : CM (complete main)
    Параметр Endianness формата : Big
    Идентификатор кодека : A_AC3
    Продолжительность : 1 ч. 34 м.
    Вид битрейта : Постоянный
    Битрейт : 384 Кбит/сек
    Каналы : 6 каналов
    Расположение каналов : Front: L C R, Side: L R, LFE
    Частота : 48,0 КГц
    Частота кадров : 31,250 кадров/сек (1536 spf)
    Метод сжатия : С потерями
    Размер потока : 260 Мбайт (6%)
    Заголовок : AC3 5.1 384 kbps
    Язык : English
    Default : Нет
    Forced : Нет
    Текст #1
    Идентификатор : 5
    Формат : UTF-8
    Идентификатор кодека : S_TEXT/UTF8
    Идентификатор кодека/Информация : UTF-8 Plain Text
    Продолжительность : 1 ч. 28 м.
    Битрейт : 92 бит/сек
    Count of elements : 1147
    Размер потока : 60,2 Кбайт (0%)
    Язык : Russian
    Default : Нет
    Forced : Нет
    Текст #2
    Идентификатор : 6
    Формат : UTF-8
    Идентификатор кодека : S_TEXT/UTF8
    Идентификатор кодека/Информация : UTF-8 Plain Text
    Продолжительность : 1 ч. 28 м.
    Битрейт : 92 бит/сек
    Count of elements : 1371
    Размер потока : 59,8 Кбайт (0%)
    Язык : English
    Default : Нет
    Forced : Нет
    Меню
    00:00:00.000 : en:Chapter 1
    00:03:24.000 : en:Chapter 2
    00:07:02.000 : en:Chapter 3
    00:09:55.000 : en:Chapter 4
    00:14:35.000 : en:Chapter 5
    00:20:41.000 : en:Chapter 6
    00:26:16.000 : en:Chapter 7
    00:31:29.000 : en:Chapter 8
    00:39:10.000 : en:Chapter 9
    00:49:57.000 : en:Chapter 10
    00:52:44.000 : en:Chapter 11
    00:54:31.000 : en:Chapter 12
    00:56:37.000 : en:Chapter 13
    01:00:12.000 : en:Chapter 14
    01:02:35.000 : en:Chapter 15
    01:07:22.000 : en:Chapter 16
    01:09:39.000 : en:Chapter 17
    01:13:54.000 : en:Chapter 18
    01:17:12.000 : en:Chapter 19
    01:22:45.000 : en:Chapter 20
    01:29:26.000 : en:Chapter 21
    01:31:29.000 : en:Chapter 22

    Скриншот c названием фильма

    Скриншоты

    Скачать .torrent

    Скачать торрент-файл бесплатно и на максимальной скорости!

    Как скачивать? · Что такое торрент? · Рейтинг и ограничения

    !ВНИМАНИЕ!
    Сайт не распространяет и не хранит электронные версии произведений, а занимается лишь лишь предоставлением доступа к создаваемому пользователями каталогу ссылок на торрент-файлы, которые содержат только списки хеш-сумм, убедительная просьба с жалобами обращаться напрямую к пользователю. Файлы для обмена на трекере предоставлены пользователями сайта, и администрация не несёт ответственности за их содержание. Просьба не заливать файлы, защищенные авторскими правами, а также файлы нелегального содержания!


    _________________
    [Профиль] [ЛС]
    Показать сообщения:    
    Ответить на тему

    Текущее время: Сегодня, в 00:02

    Часовой пояс: GMT + 2



    Вы не можете начинать темы
    Вы не можете отвечать на сообщения
    Вы не можете редактировать свои сообщения
    Вы не можете удалять свои сообщения
    Вы не можете голосовать в опросах
    Вы не можете прикреплять файлы к сообщениям
    Вы не можете скачивать файлы