BitTorrentTracker PerecTracker.org
BitTorrentTracker PerecTracker.org
    
Регистрация  ·  Вход
 
 · 
Забыли пароль?

  • Камера-обскура / Темная комната / Chambre noire / Camera Obscura / Darkroom (Арно Малерб / Arnaud Malherbe) [2012, Франция, детектив, триллер, DVB] Original (Fre) + Sub (Rus, Eng, Fre, Deu)

    Ответить на тему
     
    Автор Сообщение

    Light

    Создавать темы 01-Окт-2016 19:15

           

    [Цитировать]

    Камера-обскура
    Chambre noire-Страна: Франция
    Жанр: детектив, триллер
    Год выпуска: 2012
    Продолжительность: 01:27:13Перевод: Субтитры (перевод И.Рыбкиной, Éclair Group)
    Cубтитры: русские, английские, французские, немецкие, нидерландские
    Оригинальная аудиодорожка: французский
    Режиссер: Арно Малерб / Arnaud Malherbe
    В ролях: Джонатан Заккаи / Jonathan Zaccaï (Jeff), Армель Дойч / Armelle Deutsch (Manon), Франсис Перрен / Francis Perrin (Capitaine Mathieu), Мишель Омон / Michel Aumont (M. Edouard), Хлое Стефани / Chloé Stefani (Anna), Сильви Гранотье / Sylvie Granotier (Danton)
    Описание: Джеф, 38-летний фотограф, занят на скучной работе, и лишь его подруга Манон изредка поднимает ему настроение. Но однажды его жизнь радикально изменится, когда незнакомый эксцентричный старик отдаст ему старую фотокамеру с оказавшимся внутри снимком молодой женщины, красивой, возвышенной и печальной, которая, как затем выяснится, была убита при загадочных обстоятельствах…
    Доп. информация: Hot Bird (13.0°E) TV5MONDE Europe DVB-S
    Награда: премия за лучшую операторскую работу Luchon International Film Festival 2013.

    Качество видео: DVB
    Формат видео: MKV
    Видео: MPEG Video 2, 720x576@1024x576 (16:9), 25 fps, ~2869 kbps avg, 0.277 bit/pixel
    Аудио: MPEG Audio 2, 2 ch, 48 kHz, 192 kbps - французский
    Формат субтитров: softsub (SRT)

    Пример субтитров

    100:00:47,689 --> 00:00:50,689КАМЕРА-ОБСКУРА
    200:01:08,607 --> 00:01:11,124-Вы что делаете?-А что такого?
    300:01:11,124 --> 00:01:13,172Могли бы разрешение спросить.
    400:01:13,172 --> 00:01:16,172И часто вы людейбез спроса фотографируете?
    500:01:16,605 --> 00:01:19,605Да, особенно,когда люди красивые.
    600:01:21,528 --> 00:01:23,769Ладно, давай!
    700:01:23,769 --> 00:01:26,769-Нет, вдохновение пропало.-Свинья!
    800:01:28,245 --> 00:01:31,245Нет, ты не виновата.Дело во мне.
    900:01:31,691 --> 00:01:34,691Ты слишком чистое,деликатное существо.
    1000:01:35,411 --> 00:01:37,841Мне не до этого.Нервничаю.
    1100:01:37,841 --> 00:01:40,777Джеф, на этотраз все будет хорошо.
    1200:01:40,777 --> 00:01:43,777Я в этом уверена.Это твои лучшие работы.
    1300:01:45,087 --> 00:01:48,087Я верю в успех.
    1400:01:54,247 --> 00:01:57,247До вечера.
    1500:02:40,364 --> 00:02:42,528Здравствуйте.
    1600:02:42,528 --> 00:02:45,528Я вас жду.
    1700:03:06,048 --> 00:03:09,048Вы хорошо поработали.
    1800:03:09,366 --> 00:03:12,366Качество хорошее,но у меня все расписано.
    1900:03:12,734 --> 00:03:14,527Давайте не будем!Я 5 лет
    2000:03:14,527 --> 00:03:17,130Слушаю комплиментыи отговорки.

    MediaInfo

    GeneralUnique ID : 187546888003493360501356552493891043670 (0x8D18377D7817B729A8416D5A12DBC156)Complete name : [apreder]Chambre_noire(2012)DVB.mkvFormat : MatroskaFormat version : Version 2File size : 1.90 GiBDuration : 1 h 27 minOverall bit rate : 3 123 kb/sMovie name : Chambre noireReleased date : 2013-05-24Encoded date : UTC 2016-10-01 11:35:15Writing application : mkvmerge v9.4.2 ('So High') 64bitWriting library : libebml v1.3.4 + libmatroska v1.4.5Cover : YesAttachments : cover.jpg / small_cover.jpgACTOR : Jonathan Zaccaï, Armelle Deutsch, Francis PerrinDIRECTOR : Arnaud MalherbeGENRE : Crime, ThrillerIMDB : tt2173588KEYWORDS : perectracker.orgLAW_RATING : 16+
    VideoID : 1Format : MPEG VideoFormat version : Version 2Format profile : Main@MainFormat settings, BVOP : YesFormat settings, Matrix : CustomFormat settings, GOP : M=4, N=12Format settings, picture structure : FrameCodec ID : V_MPEG2Codec ID/Info : MPEG 1 or 2 VideoDuration : 1 h 27 minBit rate : 2 869 kb/sMaximum bit rate : 3 200 kb/sWidth : 720 pixelsHeight : 576 pixelsDisplay aspect ratio : 16:9Frame rate mode : ConstantFrame rate : 25.000 FPSStandard : PALColor space : YUVChroma subsampling : 4:2:0Bit depth : 8 bitsScan type : InterlacedScan order : Top Field FirstCompression mode : LossyBits/(Pixel*Frame) : 0.277Stream size : 1.75 GiB (92%)Default : YesForced : No
    AudioID : 2Format : MPEG AudioFormat version : Version 1Format profile : Layer 2Codec ID : A_MPEG/L2Codec ID/Hint : MP2Duration : 1 h 27 minBit rate mode : ConstantBit rate : 192 kb/sChannel(s) : 2 channelsSampling rate : 48.0 kHzCompression mode : LossyStream size : 120 MiB (6%)Language : FrenchDefault : YesForced : No
    Text #1ID : 3Format : UTF-8Codec ID : S_TEXT/UTF8Codec ID/Info : UTF-8 Plain TextLanguage : RussianDefault : NoForced : No
    Text #2ID : 4Format : UTF-8Codec ID : S_TEXT/UTF8Codec ID/Info : UTF-8 Plain TextLanguage : EnglishDefault : NoForced : No
    Text #3ID : 5Format : UTF-8Codec ID : S_TEXT/UTF8Codec ID/Info : UTF-8 Plain TextLanguage : FrenchDefault : NoForced : No
    Text #4ID : 6Format : UTF-8Codec ID : S_TEXT/UTF8Codec ID/Info : UTF-8 Plain TextLanguage : GermanDefault : NoForced : No
    Text #5ID : 7Format : UTF-8Codec ID : S_TEXT/UTF8Codec ID/Info : UTF-8 Plain TextLanguage : DutchDefault : NoForced : No

    Скриншот c названием фильма

    Скриншоты

    Резервные скриншоты


    Скачать .torrent

    Скачать торрент-файл бесплатно и на максимальной скорости!

    Как скачивать? · Что такое торрент? · Рейтинг и ограничения

    !ВНИМАНИЕ!
    Сайт не распространяет и не хранит электронные версии произведений, а занимается лишь лишь предоставлением доступа к создаваемому пользователями каталогу ссылок на торрент-файлы, которые содержат только списки хеш-сумм, убедительная просьба с жалобами обращаться напрямую к пользователю. Файлы для обмена на трекере предоставлены пользователями сайта, и администрация не несёт ответственности за их содержание. Просьба не заливать файлы, защищенные авторскими правами, а также файлы нелегального содержания!


    _________________
    [Профиль] [ЛС]
    Показать сообщения:    
    Ответить на тему

    Текущее время: Сегодня, в 16:48

    Часовой пояс: GMT + 2



    Вы не можете начинать темы
    Вы не можете отвечать на сообщения
    Вы не можете редактировать свои сообщения
    Вы не можете удалять свои сообщения
    Вы не можете голосовать в опросах
    Вы не можете прикреплять файлы к сообщениям
    Вы не можете скачивать файлы