BitTorrentTracker PerecTracker.org
BitTorrentTracker PerecTracker.org
    
Регистрация  ·  Вход
 
 · 
Забыли пароль?

  • Сон в летнюю ночь / A Midsummer Night\'s Dream (Дэвид Керр / David Kerr) [2016, Великобритания, Фэнтези, экранизация, HDTVRip] VO (Cmert)

    Ответить на тему
     
    Автор Сообщение

    rechyn

    Создавать темы 01-Окт-2016 15:05

           

    [Цитировать]

    Сон в летнюю ночь / A Midsummer Night's Dream
    Страна: Великобритания
    Жанр: Фэнтези, экранизация
    Год выпуска: 2016
    Продолжительность: 01:29:44
    Перевод: Одноголосый закадровый Cmert по субтитрам М. Васильев
    Cубтитры: нет
    Оригинальная аудиодорожка: нет
    Режиссер: Дэвид Керр / David Kerr
    В ролях: Джон Ханна, Приска Бакаре, Мэтью Теннисон, Кейт Кеннеди, Мэтт Лукас, Елейн Пейдж, Максин Пик
    Описание: Очередная (уже 14- я по счету!) экранизация (в меру вольная) одноименной пьесы Шекспира. В одном далеком государстве жестокий герцог Тезей установил неофашистский режим и карательными мерами принудил всех к повиновению. Деву Гермию за отказ вступить в брак с воином из герцогской гвардии он приговаривает к смерти. Но Гермия бежит в волшебный лес, населенный духами и феями. Туда же направляется труппа местного любительского театра. В результате начинается феерия, наполненная превращениями, романтическими приключениями и забавными ошибками...
    Сэмпл: http://multi-up.com/1120701
    Качество видео: HDTVRip
    Формат видео: AVI
    Видео: 720x400 (1.80:1), 25 fps, XviD MPEG-4 ~2104 kbps avg, 0.29 bit/pixel
    Аудио: 44.1 kHz, AC3 Dolby Digital, 2/0 (L,R) ch, ~192 kbps Cmert

    MediaInfo

    Format : AVI
    Format/Info : Audio Video Interleave
    Format profile : OpenDML
    File size : 1.44 GiB
    Duration : 1h 29mn
    Overall bit rate : 2 304 Kbps
    Movie name : Rip by basma4i
    Writing application : Lavf57.41.100
    Video
    ID : 0
    Format : MPEG-4 Visual
    Format profile : Simple@L5
    Format settings, BVOP : 2
    Format settings, QPel : No
    Format settings, GMC : No warppoints
    Format settings, Matrix : Default (H.263)
    Muxing mode : Packed bitstream
    Codec ID : XVID
    Codec ID/Hint : XviD
    Duration : 1h 29mn
    Bit rate : 2 100 Kbps
    Width : 720 pixels
    Height : 400 pixels
    Display aspect ratio : 16:9
    Frame rate : 25.000 fps
    Color space : YUV
    Chroma subsampling : 4:2:0
    Bit depth : 8 bits
    Scan type : Progressive
    Compression mode : Lossy
    Bits/(Pixel*Frame) : 0.292
    Stream size : 1.32 GiB (91%)
    Writing library : XviD 67
    Audio
    ID : 1
    Format : AC-3
    Format/Info : Audio Coding 3
    Mode extension : CM (complete main)
    Format settings, Endianness : Big
    Codec ID : 2000
    Duration : 1h 29mn
    Bit rate mode : Constant
    Bit rate : 192 Kbps
    Channel(s) : 2 channels
    Channel positions : Front: L R
    Sampling rate : 44.1 KHz
    Bit depth : 16 bits
    Compression mode : Lossy
    Stream size : 123 MiB (8%)
    Alignment : Aligned on interleaves
    Interleave, duration : 35 ms (0.87 video frame)

    Скриншот c названием фильма

    Скриншоты

    Скачать .torrent

    Скачать торрент-файл бесплатно и на максимальной скорости!

    Как скачивать? · Что такое торрент? · Рейтинг и ограничения

    !ВНИМАНИЕ!
    Сайт не распространяет и не хранит электронные версии произведений, а занимается лишь лишь предоставлением доступа к создаваемому пользователями каталогу ссылок на торрент-файлы, которые содержат только списки хеш-сумм, убедительная просьба с жалобами обращаться напрямую к пользователю. Файлы для обмена на трекере предоставлены пользователями сайта, и администрация не несёт ответственности за их содержание. Просьба не заливать файлы, защищенные авторскими правами, а также файлы нелегального содержания!


    _________________
    [Профиль] [ЛС]
    Показать сообщения:    
    Ответить на тему

    Текущее время: Сегодня, в 23:24

    Часовой пояс: GMT + 2



    Вы не можете начинать темы
    Вы не можете отвечать на сообщения
    Вы не можете редактировать свои сообщения
    Вы не можете удалять свои сообщения
    Вы не можете голосовать в опросах
    Вы не можете прикреплять файлы к сообщениям
    Вы не можете скачивать файлы