BitTorrentTracker PerecTracker.org
BitTorrentTracker PerecTracker.org
    
Регистрация  ·  Вход
 
 · 
Забыли пароль?

  • [ATV3] Девятая жизнь Луи Дракса / The 9th Life of Louis Drax (Александр Ажа / Alexandre Aja ) [2016, Великобритания, Канада, США , Триллер, детектив, WEB-DL, HD (1080p)] DUB

    Ответить на тему
     
    Автор Сообщение

    rechyn

    Создавать темы 01-Окт-2016 06:35

           

    [Цитировать]

    Девятая жизнь Луи Дракса / The 9th Life of Louis Drax
    «A mystery beyond reality»
    6.647 / 10 6.40 / 10
    -Год выпуска: 2016
    Страна: Великобритания, Канада, США
    Жанр: Триллер, детектив
    Продолжительность: 01:43:25
    Перевод: Дублированный (iTunes)
    Оригинальная аудиодорожка: Нет
    Cубтитры: Нет
    Режиссёр: Александр Ажа
    Сценарий: Макс Мингелла, Лиз Дженсен
    Продюсер: Александр Ажа, Тим Брикнелл, Макс Мингелла
    Оператор: Максим Александр
    Композитор: Патрик Уотсон
    Художник: Рэйчел О’Тул, Найджел Эванс, Карла Хетленд
    Монтаж: Бакстер
    В ролях: Джейми Дорнан, Эйден Лонгуорт, Сара Гадон, Майкл Адамуэйт, Аарон Пол, Бэкхам Скойе, Адам Абрамс, Молли Паркер, Терри Чен, Рэнди Линн
    Сборы в России: $252 815
    Мировая премьера: 1 сентября 2016
    Премьера (РФ): 1 сентября 2016, «Парадиз»
    Описание: Знаменитый психолог Аллан Паскаль пытается раскрыть тайны, которые хранит сознание 9-летнего Луи Дракса, впавшего в кому после таинственного несчастного случая. Влюбленный в мать мальчика доктор подозревает в случившемся отца. Но чем глубже он погружается в подсознание ребенка, тем сильнее размываются границы между мистикой и реальностью…-Качество исходника: WEB-DL 1080p (HDCLub)
    Качество: WEB-DL
    Тип: HD (1080p)
    Контейнер: M4V
    Видео: H.264, 1920x804, 2.40:1, 4 544 Kbps, 25.000 fps
    Аудио 1: Русский/Дублированный (iTunes), AAC / 2.0 / 160 Kbps / 48.0 KHz
    Аудио 2: Русский/Дублированный (iTunes), AC-3 / 5.1 / 384 Kbps / 48.0 KHz
    -

    iTunes Meta Tags

    Sort Name: 9th Life Of Louis Drax
    XID: Apple:vendor_id:2016-842442
    contentID: 1145477682
    Copyright: © 2016 Soda Pictures Ltd
    Screenwriters: Макс Мингелла, Лиз Дженсен
    Producers: Александр Ажа, Тим Брикнелл, Макс Мингелла
    Director: Александр Ажа
    Cast: Джейми Дорнан, Эйден Лонгуорт, Сара Гадон, Майкл Адамуэйт, Аарон Пол, Бэкхам Скойе, Адам Абрамс, Молли Паркер, Терри Чен, Рэнди Линн, Сергей Чихачев
    Studio: Soda Pictures Ltd
    Rating: 125
    Long Description: Знаменитый психолог Аллан Паскаль пытается раскрыть тайны, которые хранит сознание 9-летнего Луи Дракса, впавшего в кому после таинственного несчастного случая. Влюбленный в мать мальчика доктор подозревает в случившемся отца. Но чем глубже он погружается в подсознание ребенка, тем сильнее размываются границы между мистикой и реальностью...
    Description: Знаменитый психолог Аллан Паскаль пытается раскрыть тайны, которые хранит сознание 9-летнего Луи Дракса, впавшего в кому после таинственного несчастного случая. Влюбленный в мать мальчика доктор подозревает в случившемся отца. Но чем глубже он погружается в подсознание ребенка, тем сильнее размываются границы между мистикой и реальностью...
    Release Date: 2016-09-01T08:00:00Z
    Genre: Thriller
    Artist: Alexandre Aja
    Name: The 9th Life Of Louis Drax

    MediaInfo

    General
    Complete name : /Users/imac/HandBrake/The.9th.Life.of.Louis.Drax.WEB-DL.1080p.m4v
    Format : MPEG-4
    Codec ID : M4V
    File size : 3.68 GiB
    Duration : 1h 43mn
    Overall bit rate mode : Variable
    Overall bit rate : 5 094 Kbps
    Movie name : The 9th Life Of Louis Drax
    Performer : Alexandre Aja
    Director : Александр Ажа
    Actor : Джейми Дорнан / Эйден Лонгуорт / Сара Гадон / Майкл Адамуэйт / Аарон Пол / Бэкхам Скойе / Адам Абрамс / Молли Паркер / Терри Чен / Рэнди Линн / Сергей Чихачев
    Screenplay by : Макс Мингелла / Лиз Дженсен
    Producer : Александр Ажа / Тим Брикнелл / Макс Мингелла
    Production studio : Soda Pictures Ltd
    Genre : Thriller
    ContentType : Short Film
    Description : Знаменитый психолог Аллан Паскаль пытается раскрыть тайны, которые хранит сознание 9-летнего Луи Дракса, впавшего в кому после таинственного несчастного случая. Влюбленный в мать мальчика доктор подозревает в случившемся отца. Но чем глубже он погружается в подсознание ребенка, тем сильнее размываются границы между мистикой и реальностью...
    Recorded date : UTC 2016-09-01 08:00:00
    Encoded date : UTC 2016-09-30 22:18:39
    Tagged date : UTC 2016-09-30 22:20:20
    Copyright : © 2016 Soda Pictures Ltd
    Cover : Yes
    Rating : None
    Title/Sort : 9th Life Of Louis Drax
    LongDescription : Знаменитый психолог Аллан Паскаль пытается раскрыть тайны, которые хранит сознание 9-летнего Луи Дракса, впавшего в кому после таинственного несчастного случая. Влюбленный в мать мальчика доктор подозревает в случившемся отца. Но чем глубже он погружается в подсознание ребенка, тем сильнее размываются границы между мистикой и реальностью...
    AppleStoreCatalogID : 1145477682
    Vendor : Apple:vendor_id:2016-842442
    ContentRating : uk-movie|15|350|
    Video #1
    ID : 1
    Format : AVC
    Format/Info : Advanced Video Codec
    Format profile : High@L4
    Format settings, CABAC : Yes
    Format settings, ReFrames : 5 frames
    Codec ID : avc1
    Codec ID/Info : Advanced Video Coding
    Duration : 1h 43mn
    Bit rate : 4 544 Kbps
    Width : 1 920 pixels
    Height : 804 pixels
    Display aspect ratio : 2.40:1
    Frame rate mode : Constant
    Frame rate : 25.000 fps
    Color space : YUV
    Chroma subsampling : 4:2:0
    Bit depth : 8 bits
    Scan type : Progressive
    Bits/(Pixel*Frame) : 0.118
    Stream size : 3.28 GiB (89%)
    Title : Main Program
    Language : English
    Encoded date : UTC 2016-09-30 22:18:39
    Tagged date : UTC 2016-09-30 22:18:45
    Color range : Limited
    Color primaries : BT.709
    Transfer characteristics : BT.709
    Matrix coefficients : BT.709
    Video #2
    ID : 5
    Format : JPEG
    Codec ID : jpeg
    Duration : 1h 43mn
    Bit rate mode : Variable
    Bit rate : 1 133 bps
    Width : 640 pixels
    Height : 268 pixels
    Display aspect ratio : 2.40:1
    Frame rate mode : Variable
    Frame rate : 0.003 fps
    Minimum frame rate : 0.001 fps
    Maximum frame rate : 0.004 fps
    Color space : YUV
    Chroma subsampling : 4:2:0
    Bit depth : 8 bits
    Compression mode : Lossy
    Bits/(Pixel*Frame) : 2.202
    Stream size : 738 KiB (0%)
    Title : Chapter Images
    Language : English
    Encoded date : UTC 2016-09-30 22:18:52
    Tagged date : UTC 2016-09-30 22:18:53
    Audio #1
    ID : 2
    Format : AAC
    Format/Info : Advanced Audio Codec
    Format profile : LC
    Codec ID : 40
    Duration : 1h 43mn
    Bit rate mode : Variable
    Bit rate : 157 Kbps
    Maximum bit rate : 222 Kbps
    Channel(s) : 2 channels
    Channel positions : Front: L R
    Sampling rate : 48.0 KHz
    Compression mode : Lossy
    Stream size : 116 MiB (3%)
    Title : Russian Stereo
    Language : Russian
    Encoded date : UTC 2016-09-30 22:18:39
    Tagged date : UTC 2016-09-30 22:18:46
    Audio #2
    ID : 3
    Format : AC-3
    Format/Info : Audio Coding 3
    Mode extension : CM (complete main)
    Format settings, Endianness : Big
    Codec ID : ac-3
    Duration : 1h 43mn
    Bit rate mode : Constant
    Bit rate : 384 Kbps
    Channel(s) : 6 channels
    Channel positions : Front: L C R, Side: L R, LFE
    Sampling rate : 48.0 KHz
    Bit depth : 16 bits
    Compression mode : Lossy
    Stream size : 284 MiB (8%)
    Title : Russian DD 5.1
    Language : Russian
    Encoded date : UTC 2016-09-30 22:18:39
    Tagged date : UTC 2016-09-30 22:18:45
    Menu #1
    00:00:00.000 : 1
    00:04:06.920 : 2
    00:11:27.080 : 3
    00:16:20.920 : 4
    00:22:15.280 : 5
    00:28:33.400 : 6
    00:35:36.920 : 7
    00:41:18.720 : 8
    00:46:22.960 : 9
    00:51:16.400 : 10
    00:57:38.880 : 11
    01:04:09.760 : 12
    01:11:06.560 : 13
    01:17:27.120 : 14
    01:22:42.200 : 15
    01:34:15.040 : 16
    Menu #2
    ID : 4
    Codec ID : text
    Duration : 1h 43mn
    Language : English
    Encoded date : UTC 2016-09-30 22:18:46
    Tagged date : UTC 2016-09-30 22:18:46
    00:00:00.000 : 1
    00:04:06.920 : 2
    00:11:27.080 : 3
    00:16:20.920 : 4
    00:22:15.280 : 5
    00:28:33.400 : 6
    00:35:36.920 : 7
    00:41:18.720 : 8
    00:46:22.960 : 9
    00:51:16.400 : 10
    00:57:38.880 : 11
    01:04:09.760 : 12
    01:11:06.560 : 13
    01:17:27.120 : 14
    01:22:42.200 : 15
    01:34:15.040 : 16
    Bit rate mode : VBR

    Скриншоты


    -

    Релиз подготовлен для просмотра на Apple TV, iPad, iPhone, iPod Touch.
    Для просмотра данного релиза на компьютере с ОС Windows рекомендуется использовать VLC media player
    Скачать .torrent

    Скачать торрент-файл бесплатно и на максимальной скорости!

    Как скачивать? · Что такое торрент? · Рейтинг и ограничения

    !ВНИМАНИЕ!
    Сайт не распространяет и не хранит электронные версии произведений, а занимается лишь лишь предоставлением доступа к создаваемому пользователями каталогу ссылок на торрент-файлы, которые содержат только списки хеш-сумм, убедительная просьба с жалобами обращаться напрямую к пользователю. Файлы для обмена на трекере предоставлены пользователями сайта, и администрация не несёт ответственности за их содержание. Просьба не заливать файлы, защищенные авторскими правами, а также файлы нелегального содержания!


    _________________
    [Профиль] [ЛС]
    Показать сообщения:    
    Ответить на тему

    Текущее время: Сегодня, в 16:12

    Часовой пояс: GMT + 2



    Вы не можете начинать темы
    Вы не можете отвечать на сообщения
    Вы не можете редактировать свои сообщения
    Вы не можете удалять свои сообщения
    Вы не можете голосовать в опросах
    Вы не можете прикреплять файлы к сообщениям
    Вы не можете скачивать файлы