BitTorrentTracker PerecTracker.org
BitTorrentTracker PerecTracker.org
    
Регистрация  ·  Вход
 
 · 
Забыли пароль?

  • Давайте познакомимся (Александр Кананович) [2016, Мелодрама, WEB-DL]

    Ответить на тему
     
    Автор Сообщение

    Flirldrerve

    Создавать темы 30-Сен-2016 20:30

           

    [Цитировать]

    Давайте познакомимся
    Жанр: Мелодрама
    Год выпуска: 2016
    Продолжительность: 01:33:00
    Режиссёр: Александр Кананович
    В ролях: Вероника Пляшкевич, Алексей Анищенко, Елена Валюшкина, Руслан Чернецкий, Анастасия Боброва, Валентина Гарцуева, Елена Ласкавая, Даниил Сизов
    Описание: Люба Соловьёва становится свидетелем аварии, после которой незнакомый ей Павел – тоже Соловьёв – попадает в реанимацию. На руках у Любы остаётся его сын Шура. Люба приходит в больницу, где её принимают за жену Павла. Не в силах бросить ребёнка, у которого нет матери, а отец лежит в коме, женщина решает дождаться приезда из Германии бабушки Шуры, а пока принимает на себя роль жены и ухаживает за Павлом. Возможно, на это есть и личные причины: вся эта ситуация разворачивается на фоне разрыва с мужем Сергеем, который уверен, что Люба никому не нужна, а значит, с ней можно вести себя как угодно. А ей важно чувствовать себя нужной – пусть даже случайному человеку....-Сэмпл: http://multi-up.com/1120623-Релиз группа: -Качество видео: WEB-DL
    Формат видео: AVI
    Видео: 720x400 (16:9), 25.000 fps, XviD build 73, 1889 Kbps
    Аудио: 48.0 kHz, AC3 Dolby Digital, 2 ch, 192 Kbps

    MediaInfo

    General
    Complete name : Downloads\Davaj.poznokomimsia.2016.WEB_DLRip.Files_x.avi
    Format : AVI
    Format/Info : Audio Video Interleave
    File size : 82.7 MiB
    Duration : 5mn 31s
    Overall bit rate : 2 091 Kbps
    Writing application : VirtualDubModRus 1.5.10.2 (build 2542/release)
    Writing library : VirtualDubMod build 2542/release
    Video #0
    ID : 0
    Format : MPEG-4 Visual
    Format profile : Advanced Simple@L5
    Format settings, BVOP : 1
    Format settings, QPel : No
    Format settings, GMC : No warppoints
    Format settings, Matrix : Custom
    Codec ID : XVID
    Codec ID/Hint : XviD
    Duration : 5mn 31s
    Bit rate : 1 889 Kbps
    Width : 720 pixels
    Height : 400 pixels
    Display aspect ratio : 16:9
    Frame rate : 25.000 fps
    Color space : YUV
    Chroma subsampling : 4:2:0
    Bit depth : 8 bits
    Scan type : Progressive
    Compression mode : Lossy
    Bits/(Pixel*Frame) : 0.262
    Stream size : 74.7 MiB (90%)
    Writing library : XviD 73
    Audio #1
    ID : 1
    Format : AC-3
    Format/Info : Audio Coding 3
    Mode extension : CM (complete main)
    Format settings, Endianness : Big
    Codec ID : 2000
    Duration : 5mn 31s
    Bit rate mode : Constant
    Bit rate : 192 Kbps
    Channel(s) : 2 channels
    Channel positions : Front: L R
    Sampling rate : 48.0 KHz
    Bit depth : 16 bits
    Compression mode : Lossy
    Delay relative to video : 24ms
    Stream size : 7.59 MiB (9%)
    Alignment : Split accross interleaves
    Interleave, duration : 40 ms (1.00 video frame)
    Interleave, preload duration : 500 ms

    Скриншоты

    Скачать .torrent

    Скачать торрент-файл бесплатно и на максимальной скорости!

    Как скачивать? · Что такое торрент? · Рейтинг и ограничения

    !ВНИМАНИЕ!
    Сайт не распространяет и не хранит электронные версии произведений, а занимается лишь лишь предоставлением доступа к создаваемому пользователями каталогу ссылок на торрент-файлы, которые содержат только списки хеш-сумм, убедительная просьба с жалобами обращаться напрямую к пользователю. Файлы для обмена на трекере предоставлены пользователями сайта, и администрация не несёт ответственности за их содержание. Просьба не заливать файлы, защищенные авторскими правами, а также файлы нелегального содержания!


    _________________
    [Профиль] [ЛС]
    Показать сообщения:    
    Ответить на тему

    Текущее время: Сегодня, в 13:54

    Часовой пояс: GMT + 2



    Вы не можете начинать темы
    Вы не можете отвечать на сообщения
    Вы не можете редактировать свои сообщения
    Вы не можете удалять свои сообщения
    Вы не можете голосовать в опросах
    Вы не можете прикреплять файлы к сообщениям
    Вы не можете скачивать файлы