Register  ·  Log in
Forgot password?

  • Давайте познакомимся (Александр Кананович) [2016, Мелодрама, WEB-DL]

    Reply to topic
    Author Message


    Post 30-Sep-2016 21:30



    Давайте познакомимся
    Жанр: Мелодрама
    Год выпуска: 2016
    Продолжительность: 01:33:00
    Режиссёр: Александр Кананович
    В ролях: Вероника Пляшкевич, Алексей Анищенко, Елена Валюшкина, Руслан Чернецкий, Анастасия Боброва, Валентина Гарцуева, Елена Ласкавая, Даниил Сизов
    Описание: Люба Соловьёва становится свидетелем аварии, после которой незнакомый ей Павел – тоже Соловьёв – попадает в реанимацию. На руках у Любы остаётся его сын Шура. Люба приходит в больницу, где её принимают за жену Павла. Не в силах бросить ребёнка, у которого нет матери, а отец лежит в коме, женщина решает дождаться приезда из Германии бабушки Шуры, а пока принимает на себя роль жены и ухаживает за Павлом. Возможно, на это есть и личные причины: вся эта ситуация разворачивается на фоне разрыва с мужем Сергеем, который уверен, что Люба никому не нужна, а значит, с ней можно вести себя как угодно. А ей важно чувствовать себя нужной – пусть даже случайному человеку....-Сэмпл:Релиз группа: -Качество видео: WEB-DL
    Формат видео: AVI
    Видео: 720x400 (16:9), 25.000 fps, XviD build 73, 1889 Kbps
    Аудио: 48.0 kHz, AC3 Dolby Digital, 2 ch, 192 Kbps


    Complete name : Downloads\Davaj.poznokomimsia.2016.WEB_DLRip.Files_x.avi
    Format : AVI
    Format/Info : Audio Video Interleave
    File size : 82.7 MiB
    Duration : 5mn 31s
    Overall bit rate : 2 091 Kbps
    Writing application : VirtualDubModRus (build 2542/release)
    Writing library : VirtualDubMod build 2542/release
    Video #0
    ID : 0
    Format : MPEG-4 Visual
    Format profile : Advanced Simple@L5
    Format settings, BVOP : 1
    Format settings, QPel : No
    Format settings, GMC : No warppoints
    Format settings, Matrix : Custom
    Codec ID : XVID
    Codec ID/Hint : XviD
    Duration : 5mn 31s
    Bit rate : 1 889 Kbps
    Width : 720 pixels
    Height : 400 pixels
    Display aspect ratio : 16:9
    Frame rate : 25.000 fps
    Color space : YUV
    Chroma subsampling : 4:2:0
    Bit depth : 8 bits
    Scan type : Progressive
    Compression mode : Lossy
    Bits/(Pixel*Frame) : 0.262
    Stream size : 74.7 MiB (90%)
    Writing library : XviD 73
    Audio #1
    ID : 1
    Format : AC-3
    Format/Info : Audio Coding 3
    Mode extension : CM (complete main)
    Format settings, Endianness : Big
    Codec ID : 2000
    Duration : 5mn 31s
    Bit rate mode : Constant
    Bit rate : 192 Kbps
    Channel(s) : 2 channels
    Channel positions : Front: L R
    Sampling rate : 48.0 KHz
    Bit depth : 16 bits
    Compression mode : Lossy
    Delay relative to video : 24ms
    Stream size : 7.59 MiB (9%)
    Alignment : Split accross interleaves
    Interleave, duration : 40 ms (1.00 video frame)
    Interleave, preload duration : 500 ms


    Download .torrent

    Download free and at maximum speed!

    How to Download? · What is a torrent? · Ratings and Limitations

    The site does not extend and does not store electronic(digital) versions of products, and only gives access to a reference catalogue created by users on torrent-files which contain only lists of the hash-sums, the earnest entreaty, with complaints(abuse) to access directly to the user. Files for an exchange on tracker are given by users of a site, and the administration does not bear the responsibility for their maintenance. The request to not fill in the files protected by copyrights, and also files of the illegal maintenance!

    [Profile] [PM]
    Display posts from previous:    
    Reply to topic

    The time now is: Today 15:08

    All times are GMT + 3 Hours

    You cannot post new topics in this forum
    You cannot reply to topics in this forum
    You cannot edit your posts in this forum
    You cannot delete your posts in this forum
    You cannot vote in polls in this forum
    You cannot attach files in this forum
    You cannot download files in this forum