BitTorrentTracker PerecTracker.org
BitTorrentTracker PerecTracker.org
    
Регистрация  ·  Вход
 
 · 
Забыли пароль?

  • Тайный брат / Undercover Brother (Малкольм Д. Ли / Malcolm D. Lee) [2002, США, комедия, боевик, WEB-DL 1080p] MVO + DVO + Sub Eng + Original Eng

    Ответить на тему
     
    Автор Сообщение

    Light

    Создавать темы 30-Сен-2016 20:30

           

    [Цитировать]

    Тайный брат / Undercover Brother-Страна: США
    Жанр: Комедия, боевик
    Год выпуска: 2002
    Продолжительность: 01:26:24
    Перевод 1: Профессиональный (многоголосый закадровый)
    Перевод 2: Профессиональный (двухголосый закадровый)
    Cубтитры: английские
    Оригинальная аудиодорожка: английский-Режиссер: Малкольм Д. Ли / Malcolm D. Lee
    В ролях: Эдди Гриффин, Крис Кэттэн, Дениз Ричардс, Онжаню Эллис, Дэйв Шаппелл, Чи МакБрайд, Нил Патрик Харрис, Гари Энтони Уильямс, Билли Ди Уильямс, Джек Ноузуорти-Описание: Он — суперагент, живущий стилем Диско. Он живет и борется со злом по своим правилам — что-то заимствовав из фильмов про Брюса Ли, что-то из 60х годов… Теперь только он может справиться с очередными суперзлодеями, разработавшими новое вещество, способное превратить население земли в тупоголовых зомби.
    Этому должны помешать супергерои из организации под названием Б. Р. А. Т. С. Т. В. О. и, в частности, их «Тайный Брат»…-
    -Тип релиза: WEB-DL 1080p
    Контейнер: MKV
    Видео: AVC, 1920x1080, 13.3 Mbps, 23.976 fps, 0.268 bpf
    Аудио 1: AC3, 48000 Hz, 192 Kbps, 2.0 channels - MVO
    Аудио 2: AC3, 48000 Hz, 192 Kbps, 2.0 channels - DVO
    Аудио 3: E-AC3, 48000 Hz, 640 Kbps, 5.1 channels - ENG
    Формат субтитров: softsub (SRT)-

    Скриншоты



    Резервные скриншоты




    -

    MediaInfo

    Format : Matroska
    Format version : Version 2
    File size : 8.84 GiB
    Duration : 1h 26mn
    Overall bit rate mode : Variable
    Overall bit rate : 14.7 Mbps
    Movie name : Тайный брат / Undercover Brother (2002) WebRip 1080p
    Encoded date : UTC 2016-09-27 13:04:51
    Writing application : mkvmerge v7.8.0 ('River Man') 32bit built on Mar 27 2015 16:18:02
    Writing library : libebml v1.3.1 + libmatroska v1.4.2
    Cover : Yes
    Attachments : cover.png
    Video
    ID : 1
    Format : AVC
    Format/Info : Advanced Video Codec
    Format profile : High@L4
    Format settings, CABAC : Yes
    Format settings, ReFrames : 4 frames
    Codec ID : V_MPEG4/ISO/AVC
    Duration : 1h 26mn
    Bit rate mode : Variable
    Bit rate : 13.3 Mbps
    Maximum bit rate : 15.0 Mbps
    Width : 1 920 pixels
    Height : 1 080 pixels
    Display aspect ratio : 16:9
    Frame rate mode : Constant
    Frame rate : 23.976 (24000/1001) fps
    Color space : YUV
    Chroma subsampling : 4:2:0
    Bit depth : 8 bits
    Scan type : Progressive
    Bits/(Pixel*Frame) : 0.268
    Stream size : 8.05 GiB (91%)
    Writing library : x264 core 148 r2623 d5b2374
    Encoding settings : cabac=1 / ref=4 / deblock=1:-1:-1 / analyse=0x3:0x133 / me=umh / subme=9 / psy=1 / psy_rd=1.00:0.15 / mixed_ref=1 / me_range=24 / chroma_me=1 / trellis=2 / 8x8dct=1 / cqm=0 / deadzone=21,11 / fast_pskip=1 / chroma_qp_offset=-3 / threads=34 / lookahead_threads=5 / sliced_threads=0 / nr=150 / decimate=1 / interlaced=0 / bluray_compat=0 / constrained_intra=0 / bframes=8 / b_pyramid=2 / b_adapt=2 / b_bias=0 / direct=3 / weightb=1 / open_gop=0 / weightp=2 / keyint=120 / keyint_min=61 / scenecut=0 / intra_refresh=0 / rc_lookahead=120 / rc=crf / mbtree=1 / crf=18.0 / qcomp=0.60 / qpmin=0 / qpmax=69 / qpstep=4 / vbv_maxrate=15000 / vbv_bufsize=31250 / crf_max=0.0 / nal_hrd=vbr / filler=0 / ip_ratio=1.40 / aq=3:1.00
    Language : English
    Default : Yes
    Forced : No
    Color range : Limited
    Color primaries : BT.709
    Transfer characteristics : BT.709
    Matrix coefficients : BT.709
    Audio #1
    ID : 2
    Format : AC-3
    Format/Info : Audio Coding 3
    Mode extension : CM (complete main)
    Format settings, Endianness : Big
    Codec ID : A_AC3
    Duration : 1h 26mn
    Bit rate mode : Constant
    Bit rate : 192 Kbps
    Channel(s) : 2 channels
    Channel positions : Front: L R
    Sampling rate : 48.0 KHz
    Frame rate : 31.250 fps (1536 spf)
    Compression mode : Lossy
    Stream size : 119 MiB (1%)
    Title : MVO
    Language : Russian
    Default : Yes
    Forced : No
    Audio #2
    ID : 3
    Format : AC-3
    Format/Info : Audio Coding 3
    Mode extension : CM (complete main)
    Format settings, Endianness : Big
    Codec ID : A_AC3
    Duration : 1h 26mn
    Bit rate mode : Constant
    Bit rate : 192 Kbps
    Channel(s) : 2 channels
    Channel positions : Front: L R
    Sampling rate : 48.0 KHz
    Frame rate : 31.250 fps (1536 spf)
    Compression mode : Lossy
    Stream size : 119 MiB (1%)
    Title : DVO
    Language : Russian
    Default : No
    Forced : No
    Audio #3
    ID : 4
    Format : E-AC-3
    Format/Info : Audio Coding 3
    Format settings, Endianness : Big
    Codec ID : A_EAC3
    Duration : 1h 26mn
    Bit rate mode : Constant
    Bit rate : 640 Kbps
    Channel(s) : 6 channels
    Channel positions : Front: L C R, Side: L R, LFE
    Sampling rate : 48.0 KHz
    Frame rate : 187.500 fps (256 spf)
    Compression mode : Lossy
    Stream size : 396 MiB (4%)
    Default : No
    Forced : No
    Text
    ID : 5
    Format : UTF-8
    Codec ID : S_TEXT/UTF8
    Codec ID/Info : UTF-8 Plain Text
    Language : English
    Default : No
    Forced : No
    Скачать .torrent

    Скачать торрент-файл бесплатно и на максимальной скорости!

    Как скачивать? · Что такое торрент? · Рейтинг и ограничения

    !ВНИМАНИЕ!
    Сайт не распространяет и не хранит электронные версии произведений, а занимается лишь лишь предоставлением доступа к создаваемому пользователями каталогу ссылок на торрент-файлы, которые содержат только списки хеш-сумм, убедительная просьба с жалобами обращаться напрямую к пользователю. Файлы для обмена на трекере предоставлены пользователями сайта, и администрация не несёт ответственности за их содержание. Просьба не заливать файлы, защищенные авторскими правами, а также файлы нелегального содержания!


    _________________
    [Профиль] [ЛС]
    Показать сообщения:    
    Ответить на тему

    Текущее время: Сегодня, в 14:34

    Часовой пояс: GMT + 2



    Вы не можете начинать темы
    Вы не можете отвечать на сообщения
    Вы не можете редактировать свои сообщения
    Вы не можете удалять свои сообщения
    Вы не можете голосовать в опросах
    Вы не можете прикреплять файлы к сообщениям
    Вы не можете скачивать файлы