BitTorrentTracker PerecTracker.org
BitTorrentTracker PerecTracker.org
    
Регистрация  ·  Вход
 
 · 
Забыли пароль?

  • Алиса в Зазеркалье / Alice Through the Looking Glass (Джеймс Бобин / James Bobin) [2016, США, Великобритания, фэнтези, приключения, семейный, BDRip-AVC] Dub + Original (eng) + Sub (rus, eng)

    Ответить на тему
     
    Автор Сообщение

    rechyn

    Создавать темы 30-Сен-2016 20:30

           

    [Цитировать]

    Алиса в Зазеркалье / Alice Through the Looking Glass«Весна - самое время сойти с ума»-Страна: США, Великобритания
    Жанр: фэнтези, приключения, семейный
    Год выпуска: 2016
    Продолжительность: 01:53:12
    Перевод: Профессиональный (дублированный) (iTunes)
    Оригинальная аудиодорожка: английский
    Субтитры: русские (форс., полные) английские (форс., полные)
    Навигация по главам: есть
    Режиссер: Джеймс Бобин / James Bobin
    В ролях: Миа Васиковска (Alice Kingsleigh), Джонни Депп (Hatter Tarrant Hightopp), Хелена Бонем Картер (Iracebeth), Энн Хэтэуэй (Mirana), Саша Барон Коэн (Time), Рис Иванс (Zanik Hightopp), Мэтт Лукас (Tweedledee / Tweedledum), Линдси Дункан (Helen Kingsleigh), Лео Билл (Hamish), Джеральдин Джеймс (Lady Ascot), Эндрю Скотт (Dr. Addison Bennett), Ричард Армитедж (King Oleron)
    Описание: На этот раз главной героине предстоит отправиться в путешествие во времени, полное неожиданностей и ярких открытий, чтобы спасти своего друга, Безумного Шляпника.- -Качество: BDRip-AVC (исходник - BDRemux|ALICE_THROUGH_THE_LOOKING_GLASS_REMUX_HDCLUB)
    Формат видео: MKV
    Видео: x264, 1136x614 (1.85:1), 23,976 fps, ~3895 kbps, 0.233 bit/pixel
    Аудио 1: 48 kHz, AC3 Dolby Digital, 3/2 (L,C,R,l,r) + LFE ch, ~384 kbps [русский]
    Аудио 2: 48 kHz, AC3 Dolby Digital, 3/2 (L,C,R,l,r) + LFE ch, ~448 kbps [английский]
    Формат субтитров: softsub (SRT)-MediaInfo | x264 log
    Format : Matroska
    Format version : Version 4 / Version 2
    File size : 3.81 GiB
    Duration : 1h 53 min
    Overall bit rate : 4 823 kb/s
    Movie name : Алиса в Зазеркалье / Alice Through the Looking Glass (2016) :: AFM ::
    Encoded date : UTC 2016-09-28 19:38:58
    Writing application : mkvmerge v8.3.0 ('Over the Horizon') 32bit
    Writing library : libebml v1.3.1 + libmatroska v1.4.2
    Video
    ID : 1
    Format : AVC
    Format/Info : Advanced Video Codec
    Format profile : High@L4.1
    Format settings, CABAC : Yes
    Format settings, ReFrames : 10 frames
    Codec ID : V_MPEG4/ISO/AVC
    Duration : 1h 53 min
    Bit rate : 3 895 kb/s
    Width : 1 136 pixels
    Height : 614 pixels
    Display aspect ratio : 1.85:1
    Frame rate mode : Constant
    Frame rate : 23.976 (24000/1001) FPS
    Color space : YUV
    Chroma subsampling : 4:2:0
    Bit depth : 8 bits
    Scan type : Progressive
    Bits/(Pixel*Frame) : 0.233
    Stream size : 3.08 GiB (81%)
    Title : BDRip by AFM
    Writing library : x264 core 148 r2705+54 9f484c1 t_mod_Custom [8-bit@all X86_64]
    Encoding settings : cabac=1 / ref=10 / deblock=1:-2:-2 / analyse=0x3:0x113 / me=umh / subme=10 / psy=1 / fade_compensate=0.00 / psy_rd=1.00:0.00 / mixed_ref=1 / me_range=32 / chroma_me=1 / trellis=2 / 8x8dct=1 / cqm=0 / deadzone=21,11 / fast_pskip=0 / chroma_qp_offset=-2 / threads=6 / lookahead_threads=1 / sliced_threads=0 / nr=0 / decimate=1 / interlaced=0 / bluray_compat=0 / constrained_intra=0 / fgo=0 / bframes=12 / b_pyramid=2 / b_adapt=2 / b_bias=0 / direct=1 / weightb=1 / open_gop=0 / weightp=2 / keyint=250 / keyint_min=23 / scenecut=40 / intra_refresh=0 / rc_lookahead=40 / rc=crf / mbtree=0 / crf=17.6000 / qcomp=0.65 / qpmin=0:0:0 / qpmax=69:69:69 / qpstep=4 / vbv_maxrate=50000 / vbv_bufsize=62500 / crf_max=0.0 / nal_hrd=none / filler=0 / ip_ratio=1.35 / pb_ratio=1.30 / aq=3:0.80 / aq-sensitivity=10.00 / aq-factor=1.00:1.00:1.00 / aq2=0 / aq3=0
    Language : English
    Default : Yes
    Forced : No
    Audio #1
    ID : 2
    Format : AC-3
    Format/Info : Audio Coding 3
    Mode extension : CM (complete main)
    Format settings, Endianness : Big
    Codec ID : A_AC3
    Duration : 1h 53 min
    Bit rate mode : Constant
    Bit rate : 384 kb/s
    Channel(s) : 6 channels
    Channel positions : Front: L C R, Side: L R, LFE
    Sampling rate : 48.0 kHz
    Frame rate : 31.250 FPS (1536 spf)
    Compression mode : Lossy
    Stream size : 311 MiB (8%)
    Title : Dub, AC3 5.1 ~384 kbps
    Language : Russian
    Default : Yes
    Forced : No
    Audio #2
    ID : 3
    Format : AC-3
    Format/Info : Audio Coding 3
    Mode extension : CM (complete main)
    Format settings, Endianness : Big
    Codec ID : A_AC3
    Duration : 1h 53 min
    Bit rate mode : Constant
    Bit rate : 448 kb/s
    Channel(s) : 6 channels
    Channel positions : Front: L C R, Side: L R, LFE
    Sampling rate : 48.0 kHz
    Frame rate : 31.250 FPS (1536 spf)
    Compression mode : Lossy
    Stream size : 363 MiB (9%)
    Title : Original, AC3 5.1 ~448 kbps
    Language : English
    Default : No
    Forced : No
    Text #1
    ID : 4
    Format : UTF-8
    Codec ID : S_TEXT/UTF8
    Codec ID/Info : UTF-8 Plain Text
    Title : forced
    Language : Russian
    Default : Yes
    Forced : No
    Text #2
    ID : 5
    Format : UTF-8
    Codec ID : S_TEXT/UTF8
    Codec ID/Info : UTF-8 Plain Text
    Language : Russian
    Default : No
    Forced : No
    Text #3
    ID : 6
    Format : UTF-8
    Codec ID : S_TEXT/UTF8
    Codec ID/Info : UTF-8 Plain Text
    Title : forced
    Language : English
    Default : No
    Forced : No
    Text #4
    ID : 7
    Format : UTF-8
    Codec ID : S_TEXT/UTF8
    Codec ID/Info : UTF-8 Plain Text
    Language : English
    Default : No
    Forced : No
    Menu
    00:00:00.000 : en:Navigating The Wonder
    00:04:33.189 : en:Return Home
    00:07:24.235 : en:Canceled Plans
    00:12:07.434 : en:Through The Looking Glass
    00:16:39.789 : en:Old Friends
    00:22:47.615 : en:Chronosphere
    00:24:59.623 : en:Time's Castle
    00:30:18.232 : en:The Grand Clock
    00:35:29.792 : en:Arrival Of The Red Queen
    00:41:32.988 : en:Ocean Of Time
    00:45:20.050 : en:Coronation
    00:51:35.675 : en:Warning The Hatter
    00:54:11.038 : en:Tea Party With Time
    00:57:40.122 : en:Tart Trouble
    01:04:18.521 : en:"The Stroke Of Six"
    01:09:18.988 : en:Escape From The Asylum
    01:12:46.278 : en:Horunvendush Day
    01:18:07.390 : en:Red Queen's Lair
    01:23:20.244 : en:Changing The Past
    01:27:34.747 : en:Running Out Of Time
    01:32:15.947 : en:Family Reunion
    01:36:40.461 : en:Goodbyes
    01:40:12.588 : en:Setting Sail
    01:43:14.813 : en:End Credits

    x264

    x264 [info]: frame I:1965 Avg QP:17.13 size:124102
    x264 [info]: frame P:37485 Avg QP:18.49 size: 41731
    x264 [info]: frame B:123391 Avg QP:21.27 size: 12795
    x264 [info]: consecutive B-frames: 2.5% 2.0% 13.6% 25.7% 19.5% 30.7% 3.5% 0.9% 0.5% 0.2% 0.3% 0.2% 0.3%
    x264 [info]: mb I I16..4: 1.5% 78.3% 20.2%
    x264 [info]: mb P I16..4: 0.5% 11.7% 2.1% P16..4: 32.4% 29.6% 17.2% 0.0% 0.0% skip: 6.4%
    x264 [info]: mb B I16..4: 0.0% 1.2% 0.3% B16..8: 37.6% 12.7% 4.1% direct: 6.3% skip:37.7% L0:39.8% L1:42.5% BI:17.7%
    x264 [info]: 8x8 transform intra:80.0% inter:61.0%
    x264 [info]: coded y,uvDC,uvAC intra: 94.5% 94.5% 78.9% inter: 28.1% 23.1% 6.2%
    x264 [info]: i16 v,h,dc,p: 9% 8% 5% 77%
    x264 [info]: i8 v,h,dc,ddl,ddr,vr,hd,vl,hu: 13% 8% 5% 9% 14% 13% 13% 12% 13%
    x264 [info]: i4 v,h,dc,ddl,ddr,vr,hd,vl,hu: 12% 6% 3% 9% 16% 15% 14% 12% 13%
    x264 [info]: i8c dc,h,v,p: 42% 20% 18% 19%
    x264 [info]: Weighted P-Frames: Y:4.7% UV:3.1%
    x264 [info]: ref P L0: 51.0% 14.1% 14.9% 5.3% 5.4% 2.7% 2.6% 1.3% 1.4% 1.2% 0.1% 0.0%
    x264 [info]: ref B L0: 78.0% 10.2% 4.9% 2.2% 1.5% 1.5% 0.9% 0.5% 0.2%
    x264 [info]: ref B L1: 95.2% 4.8%
    x264 [info]: kb/s:3989.37

    Скриншоты

    с названием

    Скачать .torrent

    Скачать торрент-файл бесплатно и на максимальной скорости!

    Как скачивать? · Что такое торрент? · Рейтинг и ограничения

    !ВНИМАНИЕ!
    Сайт не распространяет и не хранит электронные версии произведений, а занимается лишь лишь предоставлением доступа к создаваемому пользователями каталогу ссылок на торрент-файлы, которые содержат только списки хеш-сумм, убедительная просьба с жалобами обращаться напрямую к пользователю. Файлы для обмена на трекере предоставлены пользователями сайта, и администрация не несёт ответственности за их содержание. Просьба не заливать файлы, защищенные авторскими правами, а также файлы нелегального содержания!


    _________________
    [Профиль] [ЛС]
    Показать сообщения:    
    Ответить на тему

    Текущее время: Сегодня, в 10:58

    Часовой пояс: GMT + 2



    Вы не можете начинать темы
    Вы не можете отвечать на сообщения
    Вы не можете редактировать свои сообщения
    Вы не можете удалять свои сообщения
    Вы не можете голосовать в опросах
    Вы не можете прикреплять файлы к сообщениям
    Вы не можете скачивать файлы