BitTorrentTracker PerecTracker.org
BitTorrentTracker PerecTracker.org
    
Регистрация  ·  Вход
 
 · 
Забыли пароль?

  • Алиса в Зазеркалье / Alice Through the Looking Glass (Джеймс Бобин / James Bobin) [2016, США, Фэнтези, приключения, семейный, BDRip 1080p] Dub (iTunes) + Sub Rus, Eng + Original Eng

    Ответить на тему
     
    Автор Сообщение

    Light

    Создавать темы 30-Сен-2016 12:10

           

    [Цитировать]

    Алиса в Зазеркалье / Alice Through the Looking Glass
    Страна: США
    Студия: Legend3D, Roth Films, Team Todd, Tim Burton Productions, Walt Disney Pictures
    Жанр: Фэнтези, приключения, семейный
    Год выпуска: 2016
    Продолжительность: 01:52:58
    Перевод: Профессиональный (дублированный) iTunes Russia
    Cубтитры: Русские (Forced, Full) | английские (Forced, Full) |
    Оригинальная аудиодорожка: английский
    Режиссер: Джеймс Бобин / James Bobin
    В ролях: Миа Васиковска, Джонни Депп, Клаудио Энкарнасьон Монтеро, Саша Барон Коэн, Энн Хэтэуэй, Хелена Бонем Картер, Алан Рикман, Эндрю Скотт, Майкл Шин, Рис Иванс
    Описание: Победив огнедышащего дракона Бармаглота и свергнув с трона Красную Королеву, Алиса возвращается в свой родной мир. Три года она плавает по китайским морям в звании капитана корабля "Чудо", перевозя торговые грузы и занимаясь делами компании своего покойного отца, Чарльза Кингсли. Но вскоре ей предстоит вновь с головой окунуться в водоворот захватывающих приключений и ярких красок дневного свечения, опередив само время, чтобы спасти своего лучшего друга, Сумасшедшего Шляпника.
    Сэмпл
    Тип релиза: BDRip 1080p
    Контейнер: MKV
    Видео: X264/MPEG4-AVC | 1920x1036 (1,85:1) | ~10700 kbps | 23.976 fps
    Аудио: Russian: AC3 | 48 KHz | 5.1 (Front: L С R Side: L R) + LFE | ~384 kbps
    Аудио 2: English: AC3 | 48 KHz | 5.1 (Front: L С R Side: L R) + LFE | ~640 kbps
    Формат субтитров: softsub (SRT)

    MediaInfo

    x264 [info]: frame I:1814 Avg QP:17.20 size:379250
    x264 [info]: frame P:46536 Avg QP:19.81 size: 93916
    x264 [info]: frame B:114157 Avg QP:21.59 size: 34853
    Общее
    Уникальный идентификатор : 191400038097967965432258718662632555653 (0x8FFE4E750345F9C3B1156B4FF7DA4485)
    Полное имя : X:ATorrentAlice.Through.the.Looking.Glass.(2016).BDRip.1080p.(qqss44).mkv
    Формат : Matroska
    Версия формата : Version 2
    Размер файла : 9,23 Гбайт
    Продолжительность : 1 ч. 53 м.
    Общий поток : 11,7 Мбит/сек
    Название фильма : Alice.Through.the.Looking.Glass.(2016).BDRip.1080p.(qqss44)
    Дата кодирования : UTC 2016-09-29 04:48:32
    Программа кодирования : mkvmerge v7.9.0 ('Birds') 64bit
    Библиотека кодирования : libebml v1.3.1 + libmatroska v1.4.2
    Видео
    Идентификатор : 1
    Формат : AVC
    Формат/Информация : Advanced Video Codec
    Профиль формата : High@L4.1
    Параметр CABAC формата : Да
    Параметр ReFrames формата : 4 кадра
    Идентификатор кодека : V_MPEG4/ISO/AVC
    Продолжительность : 1 ч. 52 м.
    Битрейт : 10,7 Мбит/сек
    Ширина : 1920 пикселей
    Высота : 1036 пикселей
    Соотношение сторон : 1,85:1
    Режим частоты кадров : Постоянный
    Частота кадров : 23,976 (24000/1001) кадра/сек
    Цветовое пространство : YUV
    Субдискретизация насыщенности : 4:2:0
    Битовая глубина : 8 бит
    Тип развёртки : Прогрессивная
    Бит/(Пиксели*Кадры) : 0.224
    Размер потока : 8,42 Гбайт (91%)
    Заголовок : Alice.Through.the.Looking.Glass.(2016)
    Библиотека кодирования : x264 core 148 r2705 3f5ed56
    Настройки программы : cabac=1 / ref=4 / deblock=1:-3:-3 / analyse=0x3:0x133 / me=umh / subme=11 / psy=1 / psy_rd=1.00:0.00 / mixed_ref=1 / me_range=32 / chroma_me=1 / trellis=2 / 8x8dct=1 / cqm=0 / deadzone=21,11 / fast_pskip=0 / chroma_qp_offset=-2 / threads=12 / lookahead_threads=2 / sliced_threads=0 / nr=0 / decimate=0 / interlaced=0 / bluray_compat=0 / constrained_intra=0 / bframes=8 / b_pyramid=2 / b_adapt=2 / b_bias=0 / direct=3 / weightb=1 / open_gop=0 / weightp=2 / keyint=240 / keyint_min=23 / scenecut=40 / intra_refresh=0 / rc=2pass / mbtree=0 / bitrate=10666 / ratetol=1.0 / qcomp=0.60 / qpmin=0 / qpmax=69 / qpstep=4 / cplxblur=20.0 / qblur=0.5 / ip_ratio=1.40 / pb_ratio=1.30 / aq=1:1.00
    Язык : English
    Default : Да
    Forced : Нет
    Аудио #1
    Идентификатор : 2
    Формат : AC-3
    Формат/Информация : Audio Coding 3
    Расширение режима : CM (complete main)
    Параметр Endianness формата : Big
    Идентификатор кодека : A_AC3
    Продолжительность : 1 ч. 53 м.
    Вид битрейта : Постоянный
    Битрейт : 384 Кбит/сек
    Каналы : 6 каналов
    Расположение каналов : Front: L C R, Side: L R, LFE
    Частота : 48,0 КГц
    Частота кадров : 31,250 кадров/сек (1536 spf)
    Метод сжатия : С потерями
    Размер потока : 311 Мбайт (3%)
    Заголовок : DUB | DD5.1 @ 384 kbps
    Язык : Russian
    Default : Да
    Forced : Нет
    Аудио #2
    Идентификатор : 3
    Формат : AC-3
    Формат/Информация : Audio Coding 3
    Расширение режима : CM (complete main)
    Параметр Endianness формата : Big
    Идентификатор кодека : A_AC3
    Продолжительность : 1 ч. 52 м.
    Вид битрейта : Постоянный
    Битрейт : 640 Кбит/сек
    Каналы : 6 каналов
    Расположение каналов : Front: L C R, Side: L R, LFE
    Частота : 48,0 КГц
    Частота кадров : 31,250 кадров/сек (1536 spf)
    Метод сжатия : С потерями
    Размер потока : 517 Мбайт (5%)
    Заголовок : Original | DD5.1 @ 640 kbps
    Язык : English
    Default : Нет
    Forced : Нет
    Текст #1
    Идентификатор : 4
    Формат : UTF-8
    Идентификатор кодека : S_TEXT/UTF8
    Идентификатор кодека/Информация : UTF-8 Plain Text
    Продолжительность : 1 ч. 43 м.
    Битрейт : 0 бит/сек
    Count of elements : 6
    Размер потока : 187 байт (0%)
    Заголовок : Forced
    Язык : Russian
    Default : Да
    Forced : Нет
    Текст #2
    Идентификатор : 5
    Формат : UTF-8
    Идентификатор кодека : S_TEXT/UTF8
    Идентификатор кодека/Информация : UTF-8 Plain Text
    Продолжительность : 1 ч. 51 м.
    Битрейт : 68 бит/сек
    Count of elements : 1391
    Размер потока : 55,7 Кбайт (0%)
    Заголовок : Full
    Язык : Russian
    Default : Нет
    Forced : Нет
    Текст #3
    Идентификатор : 6
    Формат : UTF-8
    Идентификатор кодека : S_TEXT/UTF8
    Идентификатор кодека/Информация : UTF-8 Plain Text
    Продолжительность : 3 с. 10 мс.
    Битрейт : 98 бит/сек
    Count of elements : 2
    Размер потока : 37,0 байт (0%)
    Заголовок : Forced
    Язык : English
    Default : Нет
    Forced : Нет
    Текст #4
    Идентификатор : 7
    Формат : UTF-8
    Идентификатор кодека : S_TEXT/UTF8
    Идентификатор кодека/Информация : UTF-8 Plain Text
    Продолжительность : 1 ч. 51 м.
    Битрейт : 40 бит/сек
    Count of elements : 1370
    Размер потока : 33,3 Кбайт (0%)
    Заголовок : Full
    Язык : English
    Default : Нет
    Forced : Нет
    Меню
    00:00:00.000 : en:00:00:00.000
    00:04:33.190 : en:00:04:33.190
    00:07:24.235 : en:00:07:24.235
    00:12:07.435 : en:00:12:07.435
    00:16:39.790 : en:00:16:39.790
    00:22:47.616 : en:00:22:47.616
    00:24:59.623 : en:00:24:59.623
    00:30:18.233 : en:00:30:18.233
    00:35:29.794 : en:00:35:29.794
    00:41:32.990 : en:00:41:32.990
    00:45:20.051 : en:00:45:20.051
    00:51:35.676 : en:00:51:35.676
    00:54:11.039 : en:00:54:11.039
    00:57:40.123 : en:00:57:40.123
    01:04:18.521 : en:01:04:18.521
    01:09:18.988 : en:01:09:18.988
    01:12:46.279 : en:01:12:46.279
    01:18:07.391 : en:01:18:07.391
    01:23:20.245 : en:01:23:20.245
    01:27:34.749 : en:01:27:34.749
    01:32:15.947 : en:01:32:15.947
    01:36:40.461 : en:01:36:40.461
    01:40:12.590 : en:01:40:12.590
    01:43:14.814 : en:01:43:14.814

    Скриншоты

    Скачать .torrent

    Скачать торрент-файл бесплатно и на максимальной скорости!

    Как скачивать? · Что такое торрент? · Рейтинг и ограничения

    !ВНИМАНИЕ!
    Сайт не распространяет и не хранит электронные версии произведений, а занимается лишь лишь предоставлением доступа к создаваемому пользователями каталогу ссылок на торрент-файлы, которые содержат только списки хеш-сумм, убедительная просьба с жалобами обращаться напрямую к пользователю. Файлы для обмена на трекере предоставлены пользователями сайта, и администрация не несёт ответственности за их содержание. Просьба не заливать файлы, защищенные авторскими правами, а также файлы нелегального содержания!


    _________________
    [Профиль] [ЛС]
    Показать сообщения:    
    Ответить на тему

    Текущее время: Сегодня, в 00:00

    Часовой пояс: GMT + 2



    Вы не можете начинать темы
    Вы не можете отвечать на сообщения
    Вы не можете редактировать свои сообщения
    Вы не можете удалять свои сообщения
    Вы не можете голосовать в опросах
    Вы не можете прикреплять файлы к сообщениям
    Вы не можете скачивать файлы