BitTorrentTracker PerecTracker.org
BitTorrentTracker PerecTracker.org
    
Регистрация  ·  Вход
 
 · 
Забыли пароль?

  • [ATV3] Ледниковый период: Столкновение неизбежно / Ice Age: Collision Course (Гален Т. Чу / Galen T. Chu ) [2016, США, Мультфильм, фантастика, комедия, приключения, семейный, WEB-DL, HD (1080p)] DUB + Original + sub (rus, eng)

    Ответить на тему
     
    Автор Сообщение

    Flirldrerve

    Создавать темы 30-Сен-2016 07:50

           

    [Цитировать]

    Ледниковый период: Столкновение неизбежно / Ice Age: Collision Course
    «Маленький шаг для него. Большая проблема для всех»
    5.628 / 10 5.70 / 10
    -Год выпуска: 2016
    Страна: США
    Жанр: Мультфильм, фантастика, комедия, приключения, семейный
    Продолжительность: 01:35:05
    Перевод: Дублированный (iTunes)
    Оригинальная аудиодорожка: Есть
    Cубтитры: Русские форсированные, Русские, Английские
    Режиссёр: Гален Т. Чу
    Сценарий: Майкл Дж. Уилсон, Майкл Берг, Йони Бреннер
    Продюсер: Лори Форте, Denise L. Rottina, Карлос Салдана
    Оператор: Ренато Фалькао
    Композитор: Джон Дебни
    Художник: Майкл Кнапп
    Монтаж: Эрин Крэкел, Джеймс Палумбо
    В ролях: Рэй Романо, Джон Легуизамо, Дэнис Лири, Куин Латифа, Шонн Уильям Скотт, Саймон Пегг, Дженнифер Лопез, Нил Тайсон, Джесси Тайлер Фергюсон, Джесси Джей
    Бюджет: $105 000 000
    Сборы в США: $63 715 448
    Сборы в мире: + $339 622 612 = $403 338 060
    Сборы в России: $15 279 762
    Мировая премьера: 19 июня 2016
    Премьера (РФ): 14 июля 2016, «Двадцатый Век Фокс СНГ»
    Описание: Отчаянная погоня за неуловимым желудем катапультирует Скрата прямо в космос, где он случайно запускает целую серию космических событий. Именно они изменят весь мир Ледникового периода и станут реальной угрозой для него. Чтобы спастись, Сид, Мэнни, Диего и остальные звери должны покинуть свои дома, отправиться в забавное и захватывающее приключение в экзотические новые земли и встретиться со множеством красочных новых персонажей.-Качество исходника: WEB-DL 1080p (HDCLub)
    Качество: WEB-DL
    Тип: HD (1080p)
    Контейнер: M4V
    Видео: H.264, 1916x796, 2.40:1, 4 507 Kbps, 23.976 fps
    Аудио 1: Русский/Дублированный (iTunes), AAC / 2.0 / 160 Kbps / 48.0 KHz
    Аудио 2: Английский/Оригинальная дорожка , AAC / 2.0 / 160 Kbps / 48.0 KHz
    Аудио 3: Русский/Дублированный (iTunes), AC-3 / 5.1 / 384 Kbps / 48.0 KHz
    Субтитры 1: Русские форсированные
    Субтитры 2: Русские полные
    Субтитры 3: Английские полные
    -

    iTunes Meta Tags

    Sort Name: Ice Age: Collision Course
    XID: Apple:vendor_id:2016-818145
    contentID: 1126085928
    Copyright: © 2016 Twentieth Century Fox Film Corporation. All rights reserved.
    Screenwriters: Майкл Дж. Уилсон, Майкл Берг, Йони Бреннер
    Producers: Лори Форте, Denise L. Rottina, Карлос Салдана
    Director: Майк Тёрмайер, Гален Т. Чу
    Cast: Рэй Романо, Джон Легуизамо, Дэнис Лири, Куин Латифа, Шонн Уильям Скотт, Саймон Пегг, Дженнифер Лопез, Нил Тайсон, Джесси Тайлер Фергюсон, Джесси Джей, Степан Старчиков, Антон Комолов, Александр Груздев, Ольга Шелест, Андрей Бархударов
    Studio: 20th Century Fox
    Rating: 3
    Long Description: Отчаянная погоня за неуловимым желудем катапультирует Скрата прямо в космос, где он случайно запускает целую серию космических событий. Именно они изменят весь мир Ледникового периода и станут реальной угрозой для него. Чтобы спастись, Сид, Мэнни, Диего и остальные звери должны покинуть свои дома, отправиться в забавное и захватывающее приключение в экзотические новые земли и встретиться со множеством красочных новых персонажей.
    Description: Отчаянная погоня за неуловимым желудем катапультирует Скрата прямо в космос, где он случайно запускает целую серию космических событий. Именно они изменят весь мир Ледникового периода и станут реальной угрозой для него. Чтобы спастись, Сид, Мэнни, Диего и остальные звери должны покинуть свои дома, отправиться в забавное и захватывающее приключение в экзотические новые земли и встретиться со множеством красочных новых персонажей.
    Release Date: 2016-06-19T08:00:00Z
    Genre: Kids & Family
    Artist: Galen T. Chu & Mike Thurmeier
    Name: Ice Age: Collision Course

    MediaInfo

    General
    Complete name : /Users/imac/HandBrake/Ice.Age.Collision.Course.WEB-DL.1080p.m4v
    Format : MPEG-4
    Codec ID : M4V
    File size : 3.46 GiB
    Duration : 1h 35mn
    Overall bit rate mode : Variable
    Overall bit rate : 5 213 Kbps
    Movie name : Ice Age: Collision Course
    Performer : Galen T. Chu & Mike Thurmeier
    Director : Майк Тёрмайер / Гален Т. Чу
    Actor : Рэй Романо / Джон Легуизамо / Дэнис Лири / Куин Латифа / Шонн Уильям Скотт / Саймон Пегг / Дженнифер Лопез / Нил Тайсон / Джесси Тайлер Фергюсон / Джесси Джей / Степан Старчиков / Антон Комолов / Александр Груздев / Ольга Шелест / Андрей Бархударов
    Screenplay by : Майкл Дж. Уилсон / Майкл Берг / Йони Бреннер
    Producer : Лори Форте / Denise L. Rottina / Карлос Салдана
    Production studio : 20th Century Fox
    Genre : Kids & Family
    ContentType : Short Film
    Description : Отчаянная погоня за неуловимым желудем катапультирует Скрата прямо в космос, где он случайно запускает целую серию космических событий. Именно они изменят весь мир Ледникового периода и станут реальной угрозой для него. Чтобы спастись, Сид, Мэнни, Диего и остальные звери должны покинуть свои дома, отправиться в забавное и захватывающее приключение в экзотические новые земли и встретиться со множеством красочных новых персонажей.
    Recorded date : UTC 2016-06-19 08:00:00
    Encoded date : UTC 2016-09-29 22:00:24
    Tagged date : UTC 2016-09-29 22:02:21
    Copyright : © 2016 Twentieth Century Fox Film Corporation. All rights reserved.
    Cover : Yes
    Rating : None
    Title/Sort : Ice Age: Collision Course
    LongDescription : Отчаянная погоня за неуловимым желудем катапультирует Скрата прямо в космос, где он случайно запускает целую серию космических событий. Именно они изменят весь мир Ледникового периода и станут реальной угрозой для него. Чтобы спастись, Сид, Мэнни, Диего и остальные звери должны покинуть свои дома, отправиться в забавное и захватывающее приключение в экзотические новые земли и встретиться со множеством красочных новых персонажей.
    AppleStoreCatalogID : 1126085928
    Vendor : Apple:vendor_id:2016-818145
    ContentRating : mpaa|PG|200|
    Video #1
    ID : 1
    Format : AVC
    Format/Info : Advanced Video Codec
    Format profile : High@L4
    Format settings, CABAC : Yes
    Format settings, ReFrames : 5 frames
    Codec ID : avc1
    Codec ID/Info : Advanced Video Coding
    Duration : 1h 35mn
    Bit rate : 4 507 Kbps
    Width : 1 916 pixels
    Height : 796 pixels
    Display aspect ratio : 2.40:1
    Frame rate mode : Variable
    Frame rate : 23.976 fps
    Minimum frame rate : 22.727 fps
    Maximum frame rate : 24.390 fps
    Color space : YUV
    Chroma subsampling : 4:2:0
    Bit depth : 8 bits
    Scan type : Progressive
    Bits/(Pixel*Frame) : 0.123
    Stream size : 2.99 GiB (86%)
    Title : Main Program
    Language : English
    Encoded date : UTC 2016-09-29 22:00:24
    Tagged date : UTC 2016-09-29 22:00:30
    Color range : Limited
    Color primaries : BT.709
    Transfer characteristics : BT.709
    Matrix coefficients : BT.709
    Video #2
    ID : 9
    Format : JPEG
    Codec ID : jpeg
    Duration : 1h 35mn
    Bit rate mode : Variable
    Bit rate : 1 456 bps
    Width : 640 pixels
    Height : 265 pixels
    Display aspect ratio : 2.40:1
    Frame rate mode : Variable
    Frame rate : 0.004 fps
    Minimum frame rate : 0.002 fps
    Maximum frame rate : 0.007 fps
    Color space : YUV
    Chroma subsampling : 4:2:0
    Bit depth : 8 bits
    Compression mode : Lossy
    Bits/(Pixel*Frame) : 2.146
    Stream size : 1.04 MiB (0%)
    Title : Chapter Images
    Language : English
    Encoded date : UTC 2016-09-29 22:00:38
    Tagged date : UTC 2016-09-29 22:00:39
    Audio #1
    ID : 2
    Format : AAC
    Format/Info : Advanced Audio Codec
    Format profile : LC
    Codec ID : 40
    Duration : 1h 34mn
    Bit rate mode : Variable
    Bit rate : 157 Kbps
    Maximum bit rate : 243 Kbps
    Channel(s) : 2 channels
    Channel positions : Front: L R
    Sampling rate : 48.0 KHz
    Compression mode : Lossy
    Stream size : 106 MiB (3%)
    Title : Russian Stereo
    Language : Russian
    Encoded date : UTC 2016-09-29 22:00:24
    Tagged date : UTC 2016-09-29 22:00:31
    Audio #2
    ID : 3
    Format : AAC
    Format/Info : Advanced Audio Codec
    Format profile : LC
    Codec ID : 40
    Duration : 1h 34mn
    Bit rate mode : Variable
    Bit rate : 157 Kbps
    Maximum bit rate : 243 Kbps
    Channel(s) : 2 channels
    Channel positions : Front: L R
    Sampling rate : 48.0 KHz
    Compression mode : Lossy
    Stream size : 106 MiB (3%)
    Title : English Stereo
    Language : English
    Encoded date : UTC 2016-09-29 22:00:24
    Tagged date : UTC 2016-09-29 22:00:31
    Audio #3
    ID : 4
    Format : AC-3
    Format/Info : Audio Coding 3
    Mode extension : CM (complete main)
    Format settings, Endianness : Big
    Codec ID : ac-3
    Duration : 1h 34mn
    Bit rate mode : Constant
    Bit rate : 384 Kbps
    Channel(s) : 6 channels
    Channel positions : Front: L C R, Side: L R, LFE
    Sampling rate : 48.0 KHz
    Bit depth : 16 bits
    Compression mode : Lossy
    Stream size : 260 MiB (7%)
    Title : Russian DD 5.1
    Language : Russian
    Encoded date : UTC 2016-09-29 22:00:24
    Tagged date : UTC 2016-09-29 22:00:30
    Text #1
    ID : 5
    Format : Timed Text
    Muxing mode : sbtl
    Codec ID : tx3g
    Duration : 30mn 7s
    Bit rate mode : Variable
    Bit rate : 1 bps
    Stream size : 116 Bytes (0%)
    Title : Russian Forced
    Language : Russian
    Encoded date : UTC 2016-09-29 22:00:24
    Tagged date : UTC 2016-09-29 22:00:30
    Text #2
    ID : 6
    Format : Timed Text
    Muxing mode : sbtl
    Codec ID : tx3g
    Duration : 1h 24mn
    Bit rate mode : Variable
    Bit rate : 106 bps
    Stream size : 65.6 KiB (0%)
    Title : Russian Full
    Language : Russian
    Encoded date : UTC 2016-09-29 22:00:24
    Tagged date : UTC 2016-09-29 22:00:30
    Text #3
    ID : 7
    Format : Timed Text
    Muxing mode : sbtl
    Codec ID : tx3g
    Duration : 1h 24mn
    Bit rate mode : Variable
    Bit rate : 67 bps
    Stream size : 41.3 KiB (0%)
    Title : English Full
    Language : English
    Encoded date : UTC 2016-09-29 22:00:24
    Tagged date : UTC 2016-09-29 22:00:30
    Menu #1
    00:00:00.000 : 1
    00:03:07.103 : 2
    00:05:22.321 : 3
    00:09:04.084 : 4
    00:13:20.298 : 5
    00:18:03.748 : 6
    00:20:48.579 : 7
    00:23:08.302 : 8
    00:27:27.894 : 9
    00:30:13.976 : 10
    00:32:52.342 : 11
    00:36:11.582 : 12
    00:39:31.448 : 13
    00:42:56.694 : 14
    00:47:33.011 : 15
    00:51:09.727 : 16
    00:55:48.756 : 17
    01:01:07.449 : 18
    01:05:04.394 : 19
    01:09:37.291 : 20
    01:14:34.880 : 21
    01:17:39.522 : 22
    01:21:41.055 : 23
    01:24:44.488 : 24
    Menu #2
    ID : 8
    Codec ID : text
    Duration : 1h 35mn
    Language : English
    Encoded date : UTC 2016-09-29 22:00:32
    Tagged date : UTC 2016-09-29 22:00:32
    00:00:00.000 : 1
    00:03:07.103 : 2
    00:05:22.321 : 3
    00:09:04.084 : 4
    00:13:20.298 : 5
    00:18:03.748 : 6
    00:20:48.579 : 7
    00:23:08.302 : 8
    00:27:27.894 : 9
    00:30:13.976 : 10
    00:32:52.342 : 11
    00:36:11.582 : 12
    00:39:31.448 : 13
    00:42:56.694 : 14
    00:47:33.011 : 15
    00:51:09.727 : 16
    00:55:48.756 : 17
    01:01:07.449 : 18
    01:05:04.394 : 19
    01:09:37.291 : 20
    01:14:34.880 : 21
    01:17:39.522 : 22
    01:21:41.055 : 23
    01:24:44.488 : 24
    Bit rate mode : VBR

    Скриншоты


    -

    Релиз подготовлен для просмотра на Apple TV, iPad, iPhone, iPod Touch.
    Для просмотра данного релиза на компьютере с ОС Windows рекомендуется использовать VLC media player
    Скачать .torrent

    Скачать торрент-файл бесплатно и на максимальной скорости!

    Как скачивать? · Что такое торрент? · Рейтинг и ограничения

    !ВНИМАНИЕ!
    Сайт не распространяет и не хранит электронные версии произведений, а занимается лишь лишь предоставлением доступа к создаваемому пользователями каталогу ссылок на торрент-файлы, которые содержат только списки хеш-сумм, убедительная просьба с жалобами обращаться напрямую к пользователю. Файлы для обмена на трекере предоставлены пользователями сайта, и администрация не несёт ответственности за их содержание. Просьба не заливать файлы, защищенные авторскими правами, а также файлы нелегального содержания!


    _________________
    [Профиль] [ЛС]
    Показать сообщения:    
    Ответить на тему

    Текущее время: Сегодня, в 04:02

    Часовой пояс: GMT + 2



    Вы не можете начинать темы
    Вы не можете отвечать на сообщения
    Вы не можете редактировать свои сообщения
    Вы не можете удалять свои сообщения
    Вы не можете голосовать в опросах
    Вы не можете прикреплять файлы к сообщениям
    Вы не можете скачивать файлы