BitTorrentTracker PerecTracker.org
BitTorrentTracker PerecTracker.org
    
Регистрация  ·  Вход
 
 · 
Забыли пароль?

  • Маяк (Мария Саакян) [2006, драма, DVDRip]

    Ответить на тему
     
    Автор Сообщение

    Flirldrerve

    Создавать темы 29-Сен-2016 19:20

           

    [Цитировать]

    Маяк
    Жанр: драма
    Год выпуска: 2006
    Продолжительность: 01:14:22

    Режиссёр: Мария Саакян
    В ролях: Анна Капалёва, Ольга Яковлева, Сос Саркисян, Рузана Аветисян, Софико Чиаурели, Михаил Богдасаров, Анастасия Гребенникова, Михаил Силантьев, Сергей Даниелян, Офик Тантушьян, Рита Тантушьян, Саша Магукян, Софик Саркисян, Эрмине Тантушьян; Ашот Мкртчян, Тигран Геворян, Дуня Тушкурдякова, Римма Мадаян, Овсеп Саркисян, Мантаж Мацакиян, Леван Таймурян, Варшак Овсенян, Галик Саркисян, Нелли Манукян, Лернуи, Мария Васильева
    Описание: Забрать в Москву своих родных, увезти подальше от войны — вот, что движет Леной, когда она приезжает в горы. Однако уехать ей не удаётся: поездов нет, угроза авиаудара становится всё явственнее. Выбора нет — только смириться и остаться.
    Фильм посвящён карабахскому конфликту, однако военные действия здесь не главное. Война проходит мимо, фоном, а на первый план выходят человеческие поступки и внутренние монологи. Протяжность и даже заунывность картины настраивают на меланхоличный созерцательный лад. Символичность кадров, постоянные затемнения придают «Маяку» эпичность и, насколько это возможно, отстраняют его от современности. Вместо остросоциальной драмы нашему вниманию представляют режиссерские «размышления на тему», не вступающие во взаимодействие с реальной жизнью. Несмотря на использованные в фильме документальные хроники, «Маяк» остается вещью в себе, отражением внутреннего мира его создателей.

    Качество видео: DVDRip
    Формат видео: AVI
    Видео: 704x384 (1.83:1), 25 fps, XviD build 73 ~2342 kbps avg, 0.35 bit/pixel
    Аудио: 48 kHz, AC3 Dolby Digital, 3/2 (L,C,R,l,r) + LFE ch, ~448 kbps

    MediaInfo

    Общее
    Полное имя : H:\Маяк.2006.dvdrip_[1.46]_[teko].avi
    Формат : AVI
    Формат/Информация : Audio Video Interleave
    Размер файла : 1,45 Гбайт
    Продолжительность : 1 ч. 14 м.
    Общий поток : 2800 Кбит/сек
    Программа кодирования : VirtualDubMod 1.5.10.3 | www.virtualdub-fr.org || (build 2550/release)
    Библиотека кодирования : VirtualDubMod build 2550/release
    Видео
    Идентификатор : 0
    Формат : MPEG-4 Visual
    Профиль формата : Advanced Simple@L5
    Параметр BVOP формата : 2
    Параметр QPel формата : Нет
    Параметр GMC формата : Без точки перехода
    Параметр матрицы формата : Выборочная
    Идентификатор кодека : XVID
    Идентификатор кодека/Подсказка : XviD
    Продолжительность : 1 ч. 14 м.
    Битрейт : 2343 Кбит/сек
    Ширина : 704 пикселя
    Высота : 384 пикселя
    Соотношение сторон : 1,85:1
    Частота кадров : 25,000 кадров/сек
    Цветовое пространство : YUV
    Субдискретизация насыщенности : 4:2:0
    Битовая глубина : 8 бит
    Тип развёртки : Прогрессивная
    Метод сжатия : С потерями
    Бит/(Пиксели*Кадры) : 0.347
    Размер потока : 1,22 Гбайт (84%)
    Библиотека кодирования : XviD 73
    Аудио
    Идентификатор : 1
    Формат : AC-3
    Формат/Информация : Audio Coding 3
    Расширение режима : CM (complete main)
    Параметр Endianness формата : Big
    Идентификатор кодека : 2000
    Продолжительность : 1 ч. 14 м.
    Вид битрейта : Постоянный
    Битрейт : 448 Кбит/сек
    Каналы : 6 каналов
    Расположение каналов : Front: L C R, Side: L R, LFE
    Частота : 48,0 КГц
    Битовая глубина : 16 бит
    Метод сжатия : С потерями
    Размер потока : 238 Мбайт (16%)
    Выравнивание : Разделение по промежуткам
    Продолжительность промежутка : 40 мс. (1,00 видеокадр)
    Время предзагрузки промежутка : 500 мс.

    Скриншоты

    Релиз группы:

    -
    -
    Скачать .torrent

    Скачать торрент-файл бесплатно и на максимальной скорости!

    Как скачивать? · Что такое торрент? · Рейтинг и ограничения

    !ВНИМАНИЕ!
    Сайт не распространяет и не хранит электронные версии произведений, а занимается лишь лишь предоставлением доступа к создаваемому пользователями каталогу ссылок на торрент-файлы, которые содержат только списки хеш-сумм, убедительная просьба с жалобами обращаться напрямую к пользователю. Файлы для обмена на трекере предоставлены пользователями сайта, и администрация не несёт ответственности за их содержание. Просьба не заливать файлы, защищенные авторскими правами, а также файлы нелегального содержания!


    _________________
    [Профиль] [ЛС]
    Показать сообщения:    
    Ответить на тему

    Текущее время: Сегодня, в 23:12

    Часовой пояс: GMT + 2



    Вы не можете начинать темы
    Вы не можете отвечать на сообщения
    Вы не можете редактировать свои сообщения
    Вы не можете удалять свои сообщения
    Вы не можете голосовать в опросах
    Вы не можете прикреплять файлы к сообщениям
    Вы не можете скачивать файлы