BitTorrentTracker PerecTracker.org
BitTorrentTracker PerecTracker.org
    
Регистрация  ·  Вход
 
 · 
Забыли пароль?

  • Свадебный угар / Mike and Dave Need Wedding Dates (Джейк Зиманский / Jake Szymanski) [2016, США, Мелодрама, комедия, приключения, BDRip] Dub

    Ответить на тему
     
    Автор Сообщение

    rechyn

    Создавать темы 29-Сен-2016 19:20

           

    [Цитировать]

    Свадебный угар / Mike and Dave Need Wedding Dates
    Страна: США
    Жанр: Мелодрама, комедия, приключения
    Год выпуска: 2016
    Продолжительность: 01:38:32
    Перевод: Профессиональный (дублированный) Лицензия
    Cубтитры: нет
    Режиссер: Джейк Зиманский / Jake Szymanski
    В ролях: Зак Эфрон, Адам Дивайн, Анна Кендрик, Обри Плаза, Стивен Рут, Стефани Фэраси, Стефани Бирд, Сэм Ричардсон, Элис Веттерлунд, Лавелл Кроуфорд
    Описание: Братья по крови и лоботрясы по жизни Майк и Дэйв здорово разгневали семью своими бесконечными громогласными шутками и взрывоопасными приколами, поэтому на свадьбу любимой сестрички оба парня обязуются явиться серьёзными молодыми людьми и в обществе респектабельных девушек. Вот только где таких взять? Решение было найдено с помощью интернета и телевидения, но результат оказался таков, что братья повстречали двух лихих девах, равных себе по качеству разгула и экстремального веселья. “Свадебный угар” и свадебный переполох обеспечен - эту свадьбу на Гавайях запомнят надолго....
    Сэмпл: http://multi-up.com/1120059
    Качество видео: BDRip MIKE_AND_DAVE_WEDDING_DATES_HDCLUB
    Формат видео: AVI
    Видео: 720x304 (2.37:1), 23.976 fps, XviD build 73 ~1720 kbps avg, 0.33 bit/pixel
    Аудио: 48 kHz, AC3 Dolby Digital, 3/2 (L,C,R,l,r) + LFE ch, ~384 kbps

    MediaInfo

    Формат : AVI
    Формат/Информация : Audio Video Interleave
    Размер файла : 1,46 Гбайт
    Продолжительность : 1 ч. 38 м.
    Общий поток : 2114 Кбит/сек
    Программа кодирования : VirtualDubMod 1.5.10.3 | www.virtualdub-fr.org || (build 2550/release)
    Библиотека кодирования : VirtualDubMod build 2550/release
    Видео
    Идентификатор : 0
    Формат : MPEG-4 Visual
    Профиль формата : Advanced Simple@L5
    Параметр BVOP формата : 1
    Параметр QPel формата : Нет
    Параметр GMC формата : Без точки перехода
    Параметр матрицы формата : Выборочная
    Идентификатор кодека : XVID
    Идентификатор кодека/Подсказка : XviD
    Продолжительность : 1 ч. 38 м.
    Битрейт : 1721 Кбит/сек
    Ширина : 720 пикселей
    Высота : 304 пикселя
    Соотношение сторон : 2,35:1
    Частота кадров : 23,976 (23976/1000) кадра/сек
    Цветовое пространство : YUV
    Субдискретизация насыщенности : 4:2:0
    Битовая глубина : 8 бит
    Тип развёртки : Прогрессивная
    Метод сжатия : С потерями
    Бит/(Пиксели*Кадры) : 0.328
    Размер потока : 1,18 Гбайт (81%)
    Библиотека кодирования : XviD 73
    Аудио
    Идентификатор : 1
    Формат : AC-3
    Формат/Информация : Audio Coding 3
    Расширение режима : CM (complete main)
    Параметр Endianness формата : Big
    Идентификатор кодека : 2000
    Продолжительность : 1 ч. 38 м.
    Вид битрейта : Постоянный
    Битрейт : 384 Кбит/сек
    Каналы : 6 каналов
    Расположение каналов : Front: L C R, Side: L R, LFE
    Частота : 48,0 КГц
    Частота кадров : 31,250 кадров/сек (1536 spf)
    Метод сжатия : С потерями
    Размер потока : 271 Мбайт (18%)
    Выравнивание : Разделение по промежуткам
    Продолжительность промежутка : 42 мс. (1,00 видеокадр)
    Время предзагрузки промежутка : 500 мс.

    Скриншоты

    Скачать .torrent

    Скачать торрент-файл бесплатно и на максимальной скорости!

    Как скачивать? · Что такое торрент? · Рейтинг и ограничения

    !ВНИМАНИЕ!
    Сайт не распространяет и не хранит электронные версии произведений, а занимается лишь лишь предоставлением доступа к создаваемому пользователями каталогу ссылок на торрент-файлы, которые содержат только списки хеш-сумм, убедительная просьба с жалобами обращаться напрямую к пользователю. Файлы для обмена на трекере предоставлены пользователями сайта, и администрация не несёт ответственности за их содержание. Просьба не заливать файлы, защищенные авторскими правами, а также файлы нелегального содержания!


    _________________
    [Профиль] [ЛС]
    Показать сообщения:    
    Ответить на тему

    Текущее время: Сегодня, в 10:22

    Часовой пояс: GMT + 2



    Вы не можете начинать темы
    Вы не можете отвечать на сообщения
    Вы не можете редактировать свои сообщения
    Вы не можете удалять свои сообщения
    Вы не можете голосовать в опросах
    Вы не можете прикреплять файлы к сообщениям
    Вы не можете скачивать файлы