BitTorrentTracker PerecTracker.org
BitTorrentTracker PerecTracker.org
    
Регистрация  ·  Вход
 
 · 
Забыли пароль?

  • Тарзан. Легенда / The Legend of Tarzan (Дэвид Йэтсс) [2016, Боевик, драма, мелодрама, приключения , Blu-Ray Remux 1080p] [DD5.1] [Dub Rus, Englis + Subs Rus,ENG]

    Ответить на тему
     
    Автор Сообщение

    Враг Нароода

    Создавать темы 29-Сен-2016 10:57

           

    [Цитировать]

    --Тарзан. Легенда / The Legend of Tarzan----Год выпуска: 2016
    Выпущено: США, Великобритания, Канада, Dark Horse Entertainment, Jerry Weintraub Productions, Riche Productions
    Жанр: Боевик, драма, мелодрама, приключения
    Продолжительность: 01:49:57
    Озвучка 1: Дублированный (iTunes)-Русский
    Озвучка 2: Профессиональный многоголосый -OMSKBIRD-Русский
    Озвучка 3: Профессиональный многоголосый -Английский -Оригинал
    Озвучка 4: Профессиональный многоголосый -Английский |Descriptive|-Оригинал
    Субтитры: Russian (Forced, iTunes), Russian (iTunes), English (SDH)--IMDB --Режиссер:
    Дэвид Йэтс--В ролях: Александр Скарсгард, Рори Дж. Сапер, Кристоф Вальц, Сэмюэл Л. Джексон, Марго Робби, Ози Икхайл, Менс-Сана Тамакло, Энтони Ачеампонг
    --Все истории о Тарзане рассказывают нам одинаковый сюжет о взрослении в джунглях маленького мальчика – выросший в окружении горилл, он постепенно становится могучим воином. Но что произошло потом, когда Джон Клейтон покинул тропический лес и вернулся в Лондон? Под именем лорда Грейстока наш герой мирно живет в британской столице, войдя в высшее общество Англии. Но внезапные обстоятельства заставляют Джона вновь отправиться на Черный континент - пройдя через смертельно опасные приключения, ему предстоит разоблачить коварные планы связанных с продажными политиками злоумышленников.----Качество :Blu-Ray Remux 1080p
    Формат: MKV
    Видео кодек: H264
    Видео: 24,8Мбит/сек,1920х1080(16.9),в 23.976кадр/сек,AVC(High@L4,1)(CABAC/4 Ref Frames)
    Аудио Кодек:AC3
    Аудио #1:AC3 , 640 Kbps, 48.0 KHz, 6 ch- -Дублированный (iTunes)-Русский
    Аудио #2:AC3 , 640 Kbps, 48.0 KHz, 6 ch- -Профессиональный многоголосый -OMSKBIRD-Русский
    Аудио #3: AC3, 640 Kbps, 48.0 KHz,6 ch - - English-Английский -Оригинал
    Аудио #4: AC3, 640 Kbps, 48.0 KHz,6 ch - - English-Английский |Descriptive|-Оригинал--

    MediaInfo

    Общее
    Уникальный идентификатор : 228734953674817492257755034593320356705 (0xAC14BFE9C91FF11B8D9FCF471FE1CB61)
    Полное имя : C:\МОЙ ДОСУГ\ТАРЗАН. ЛЕГЕНДА\THE_LEGEND_OF_TARZAN_2016_RUS[DUB_iTunes_OMSKBIRD]_DD5.1_N.B_Blu-Ray_Remux_1080p_Rus_Eng\THE_LEGEND_OF_TARZAN_2016_RUS[DUB_iTunes_OMSKBIRD]_DD5.1_N.B_Blu-Ray_Remux_1080p_Rus_Eng.mkv
    Формат : Matroska
    Версия формата : Version 4 / Version 2
    Размер файла : 21,1 Гбайт
    Продолжительность : 1 ч. 49 м.
    Режим общего битрейта : Переменный
    Общий поток : 27,4 Мбит/сек
    Название фильма : THE_LEGEND_OF_TARZAN_2016_RUS[DUB_iTunes_OMSKBIRD]_DD5.1_N.B_Blu-Ray_Remux_1080p_Rus_Eng
    Дата кодирования : UTC 2016-09-29 05:45:36
    Программа кодирования : mkvmerge v9.4.2 ('So High') 64bit
    Библиотека кодирования : libebml v1.3.4 + libmatroska v1.4.5
    Видео
    Идентификатор : 1
    Формат : AVC
    Формат/Информация : Advanced Video Codec
    Профиль формата : High@L4.1
    Параметр CABAC формата : Да
    Параметр ReFrames формата : 4 кадра
    Идентификатор кодека : V_MPEG4/ISO/AVC
    Продолжительность : 1 ч. 49 м.
    Вид битрейта : Переменный
    Битрейт : 24,8 Мбит/сек
    Максимальный битрейт : 29,0 Мбит/сек
    Ширина : 1920 пикселей
    Высота : 1080 пикселей
    Соотношение сторон : 16:9
    Режим частоты кадров : Постоянный
    Частота кадров : 23,976 (24000/1001) кадра/сек
    Цветовое пространство : YUV
    Субдискретизация насыщенности : 4:2:0
    Битовая глубина : 8 бит
    Тип развёртки : Прогрессивная
    Бит/(Пиксели*Кадры) : 0.500
    Размер потока : 19,1 Гбайт (91%)
    Заголовок : THE_LEGEND_OF_TARZAN_2016_RUS[DUB_iTunes_OMSKBIRD]_DD5.1_N.B_Blu-Ray_Remux_1080p_Rus_Eng
    Язык : English
    Default : Да
    Forced : Нет
    Аудио #1
    Идентификатор : 8
    Формат : AC-3
    Формат/Информация : Audio Coding 3
    Расширение режима : CM (complete main)
    Параметр Endianness формата : Big
    Идентификатор кодека : A_AC3
    Продолжительность : 1 ч. 49 м.
    Вид битрейта : Постоянный
    Битрейт : 640 Кбит/сек
    Каналы : 6 каналов
    Расположение каналов : Front: L C R, Side: L R, LFE
    Частота : 48,0 КГц
    Частота кадров : 31,250 кадров/сек (1536 spf)
    Метод сжатия : С потерями
    Размер потока : 503 Мбайт (2%)
    Заголовок : Russian DUB iTunes@DD5.1 AC3 ,640 Kbps, 48.0 KHz, 6 ch
    Язык : Russian
    Default : Да
    Forced : Нет
    Аудио #2
    Идентификатор : 9
    Формат : AC-3
    Формат/Информация : Audio Coding 3
    Расширение режима : CM (complete main)
    Параметр Endianness формата : Big
    Идентификатор кодека : A_AC3
    Продолжительность : 1 ч. 49 м.
    Вид битрейта : Постоянный
    Битрейт : 640 Кбит/сек
    Каналы : 6 каналов
    Расположение каналов : Front: L C R, Side: L R, LFE
    Частота : 48,0 КГц
    Частота кадров : 31,250 кадров/сек (1536 spf)
    Метод сжатия : С потерями
    Размер потока : 503 Мбайт (2%)
    Заголовок : Original@DD5.1 AC3 ,640 Kbps, 48.0 KHz, 6 ch
    Язык : English
    Default : Нет
    Forced : Нет
    Аудио #3
    Идентификатор : 10
    Формат : AC-3
    Формат/Информация : Audio Coding 3
    Расширение режима : CM (complete main)
    Параметр Endianness формата : Big
    Идентификатор кодека : A_AC3
    Продолжительность : 1 ч. 49 м.
    Вид битрейта : Постоянный
    Битрейт : 640 Кбит/сек
    Каналы : 6 каналов
    Расположение каналов : Front: L C R, Side: L R, LFE
    Частота : 48,0 КГц
    Частота кадров : 31,250 кадров/сек (1536 spf)
    Метод сжатия : С потерями
    Размер потока : 503 Мбайт (2%)
    Заголовок : Original Descriptive@DD5.1 AC3 ,448 Kbps, 48.0 KHz, 6 ch
    Язык : English
    Default : Нет
    Forced : Нет
    Аудио #4
    Идентификатор : 11
    Формат : AC-3
    Формат/Информация : Audio Coding 3
    Расширение режима : CM (complete main)
    Параметр Endianness формата : Big
    Идентификатор кодека : A_AC3
    Продолжительность : 1 ч. 49 м.
    Вид битрейта : Постоянный
    Битрейт : 640 Кбит/сек
    Каналы : 6 каналов
    Расположение каналов : Front: L C R, Side: L R, LFE
    Частота : 48,0 КГц
    Частота кадров : 31,250 кадров/сек (1536 spf)
    Метод сжатия : С потерями
    Размер потока : 503 Мбайт (2%)
    Заголовок : MVO OMSKBIRD @DD5.1 AC3, 640 Kbps, 48.0 KHz, 6 ch
    Язык : Russian
    Default : Нет
    Forced : Нет
    Текст #1
    Идентификатор : 2
    Формат : UTF-8
    Идентификатор кодека : S_TEXT/UTF8
    Идентификатор кодека/Информация : UTF-8 Plain Text
    Продолжительность : 1 ч. 43 м.
    Битрейт : 3 бит/сек
    Count of elements : 43
    Размер потока : 2,34 Кбайт (0%)
    Заголовок : Forced
    Язык : Russian
    Default : Да
    Forced : Нет
    Текст #2
    Идентификатор : 3
    Формат : UTF-8
    Идентификатор кодека : S_TEXT/UTF8
    Идентификатор кодека/Информация : UTF-8 Plain Text
    Продолжительность : 1 ч. 43 м.
    Битрейт : 45 бит/сек
    Count of elements : 712
    Размер потока : 34,7 Кбайт (0%)
    Заголовок : iTunes
    Язык : Russian
    Default : Нет
    Forced : Нет
    Текст #3
    Идентификатор : 4
    Формат : PGS
    Режим смешивания : zlib
    Идентификатор кодека : S_HDMV/PGS
    Идентификатор кодека/Информация : Picture based subtitle format used on BDs/HD-DVDs
    Продолжительность : 1 ч. 43 м.
    Битрейт : 11,3 Кбит/сек
    Count of elements : 1424
    Размер потока : 8,43 Мбайт (0%)
    Заголовок : Russian
    Язык : Russian
    Default : Нет
    Forced : Нет
    Текст #4
    Идентификатор : 5
    Формат : UTF-8
    Идентификатор кодека : S_TEXT/UTF8
    Идентификатор кодека/Информация : UTF-8 Plain Text
    Продолжительность : 1 ч. 47 м.
    Битрейт : 32 бит/сек
    Count of elements : 940
    Размер потока : 25,3 Кбайт (0%)
    Заголовок : SDH Original
    Язык : English
    Default : Нет
    Forced : Нет
    Текст #5
    Идентификатор : 6
    Формат : UTF-8
    Идентификатор кодека : S_TEXT/UTF8
    Идентификатор кодека/Информация : UTF-8 Plain Text
    Продолжительность : 1 ч. 47 м.
    Битрейт : 26 бит/сек
    Count of elements : 677
    Размер потока : 20,8 Кбайт (0%)
    Заголовок : Full Original
    Язык : English
    Default : Нет
    Forced : Нет
    Текст #6
    Идентификатор : 7
    Формат : PGS
    Режим смешивания : zlib
    Идентификатор кодека : S_HDMV/PGS
    Идентификатор кодека/Информация : Picture based subtitle format used on BDs/HD-DVDs
    Продолжительность : 1 ч. 47 м.
    Битрейт : 6735 бит/сек
    Count of elements : 1880
    Размер потока : 5,19 Мбайт (0%)
    Заголовок : Original
    Язык : English
    Default : Нет
    Forced : Нет
    --

    Скриншоты

    --------Релиз от: Nikolai.Baranov & PIRATIYA --------
    Скачать .torrent

    Скачать торрент-файл бесплатно и на максимальной скорости!

    Как скачивать? · Что такое торрент? · Рейтинг и ограничения

    !ВНИМАНИЕ!
    Сайт не распространяет и не хранит электронные версии произведений, а занимается лишь лишь предоставлением доступа к создаваемому пользователями каталогу ссылок на торрент-файлы, которые содержат только списки хеш-сумм, убедительная просьба с жалобами обращаться напрямую к пользователю. Файлы для обмена на трекере предоставлены пользователями сайта, и администрация не несёт ответственности за их содержание. Просьба не заливать файлы, защищенные авторскими правами, а также файлы нелегального содержания!


    _________________

    Легко быть оптимистом, когда судьба не валит с ног тяжелыми ударами, а лишь иногда легонько шлепает по заднице.
    [Профиль] [ЛС]
    Показать сообщения:    
    Ответить на тему

    Текущее время: Сегодня, в 13:42

    Часовой пояс: GMT + 2



    Вы не можете начинать темы
    Вы не можете отвечать на сообщения
    Вы не можете редактировать свои сообщения
    Вы не можете удалять свои сообщения
    Вы не можете голосовать в опросах
    Вы не можете прикреплять файлы к сообщениям
    Вы не можете скачивать файлы