BitTorrentTracker PerecTracker.org
BitTorrentTracker PerecTracker.org
    
Регистрация  ·  Вход
 
 · 
Забыли пароль?

  • День независимости: Возрождение / Independence Day: Resurgence (Роланд Эммерих / Roland Emmerich ) [2016, США, Фантастика, боевик, приключения, WEB-DL, HD (720p)] DUB + Original + sub (rus, eng, ukr)

    Ответить на тему
     
    Автор Сообщение

    rechyn

    Создавать темы 29-Сен-2016 06:40

           

    [Цитировать]

    День независимости: Возрождение / Independence Day: Resurgence
    «У нас было двадцать лет на подготовку. У них тоже»
    5.539 / 10 5.40 / 10
    -Год выпуска: 2016
    Страна: США
    Жанр: Фантастика, боевик, приключения
    Продолжительность: 02:00:11
    Перевод: Дублированный (iTunes)
    Оригинальная аудиодорожка: Есть
    Cубтитры: Русские форсированные, Английские форсированные, Русские, Английские, Украинские
    Режиссёр: Роланд Эммерих
    Сценарий: Николас Райт, Джеймс А. Вудс, Дин Девлин
    Продюсер: Дин Девлин, Роланд Эммерих, Харальд Клозер
    Оператор: Маркус Фёрдерер
    Композитор: Харальд Клозер, Томас Ванкер
    Художник: Бэрри Чусид, Лорен Абиунесс, Рави Бансал
    Монтаж: Адам Вульф
    В ролях: Лиам Хемсворт, Джефф Голдблюм, Джесси Ашер, Билл Пуллман, Майка Монро, Села Уорд, Уильям Фихтнер, Джадд Хёрш, Брент Спайнер, Патрик Ст. Эсприт
    Бюджет: $165 000 000
    Сборы в США: $103 144 286
    Сборы в мире: + $284 884 294 = $388 028 580
    Сборы в России: $7 041 535
    Мировая премьера: 20 июня 2016
    Премьера (РФ): 23 июня 2016, «Двадцатый Век Фокс СНГ»
    Описание: Используя инопланетные технологии, жители Земли создали специальную программу по защите планеты. Но ничего не может нас спасти от нового, еще более разрушительного и масштабного инопланетного вторжения — только смелость нескольких героев, которые единственные могут спасти наш мир от уничтожения.-Качество исходника: WEB-DL 720p (HDCLub)
    Качество: WEB-DL
    Тип: HD (720p)
    Контейнер: M4V
    Видео: H.264, 1280x532, 2.40:1, 4 023 Kbps, 23.976 fps
    Аудио 1: Русский/Дублированный (iTunes), AAC / 2.0 / 160 Kbps / 48.0 KHz
    Аудио 2: Английский/Оригинальная дорожка , AAC / 2.0 / 160 Kbps / 48.0 KHz
    Аудио 3: Русский/Дублированный (iTunes), AC-3 / 5.1 / 384 Kbps / 48.0 KHz
    Аудио 4: Английский/Оригинальная дорожка , AC-3 / 5.1 / 384 Kbps / 48.0 KHz
    Субтитры 1: Русские форсированные
    Субтитры 2: Английские форсированные
    Субтитры 3: Русские полные
    Субтитры 4: Английские полные
    Субтитры 5: Украинские полные
    -

    iTunes Meta Tags

    Sort Name: Independence Day: Resurgence
    XID: Apple:vendor_id:2016-505827
    contentID: 1121888040
    Copyright: © 2016 Twentieth Century Fox Film Corporation. All rights reserved.
    Screenwriters: Николас Райт, Джеймс А. Вудс, Дин Девлин
    Producers: Дин Девлин, Роланд Эммерих, Харальд Клозер
    Director: Роланд Эммерих
    Cast: Лиам Хемсворт, Джефф Голдблюм, Джесси Ашер, Билл Пуллман, Майка Монро, Села Уорд, Уильям Фихтнер, Джадд Хёрш, Брент Спайнер, Патрик Ст. Эсприт, Александр Разбаш, Давид Бродский, Глеб Гаврилов, Валентин Морозов, Екатерина Тихомирова
    Studio: 20th Century Fox
    Rating: 4
    Long Description: Используя инопланетные технологии, жители Земли создали специальную программу по защите планеты. Но ничего не может нас спасти от нового, еще более разрушительного и масштабного инопланетного вторжения - только смелость нескольких героев, которые единственные могут спасти наш мир от уничтожения.
    Description: Используя инопланетные технологии, жители Земли создали специальную программу по защите планеты. Но ничего не может нас спасти от нового, еще более разрушительного и масштабного инопланетного вторжения - только смелость нескольких героев, которые единственные могут спасти наш мир от уничтожения.
    Release Date: 2016-06-20T08:00:00Z
    Genre: Action & Adventure
    Artist: Roland Emmerich
    Name: Independence Day: Resurgence

    MediaInfo

    General
    Complete name : /Users/imac/HandBrake/Independence.Day.Resurgence.WEB-DL.720p.m4v
    Format : MPEG-4
    Codec ID : M4V
    File size : 4.29 GiB
    Duration : 2h 0mn
    Overall bit rate mode : Variable
    Overall bit rate : 5 111 Kbps
    Movie name : Independence Day: Resurgence
    Performer : Roland Emmerich
    Director : Роланд Эммерих
    Actor : Лиам Хемсворт / Джефф Голдблюм / Джесси Ашер / Билл Пуллман / Майка Монро / Села Уорд / Уильям Фихтнер / Джадд Хёрш / Брент Спайнер / Патрик Ст. Эсприт / Александр Разбаш / Давид Бродский / Глеб Гаврилов / Валентин Морозов / Екатерина Тихомирова
    Screenplay by : Николас Райт / Джеймс А. Вудс / Дин Девлин
    Producer : Дин Девлин / Роланд Эммерих / Харальд Клозер
    Production studio : 20th Century Fox
    Genre : Action & Adventure
    ContentType : Short Film
    Description : Используя инопланетные технологии, жители Земли создали специальную программу по защите планеты. Но ничего не может нас спасти от нового, еще более разрушительного и масштабного инопланетного вторжения - только смелость нескольких героев, которые единственные могут спасти наш мир от уничтожения.
    Recorded date : UTC 2016-06-20 08:00:00
    Encoded date : UTC 2016-09-28 22:20:47
    Tagged date : UTC 2016-09-28 22:23:00
    Copyright : © 2016 Twentieth Century Fox Film Corporation. All rights reserved.
    Cover : Yes
    Rating : None
    Title/Sort : Independence Day: Resurgence
    LongDescription : Используя инопланетные технологии, жители Земли создали специальную программу по защите планеты. Но ничего не может нас спасти от нового, еще более разрушительного и масштабного инопланетного вторжения - только смелость нескольких героев, которые единственные могут спасти наш мир от уничтожения.
    HDVideo : Yes
    AppleStoreCatalogID : 1121888040
    Vendor : Apple:vendor_id:2016-505827
    ContentRating : mpaa|PG-13|300|
    Video #1
    ID : 1
    Format : AVC
    Format/Info : Advanced Video Codec
    Format profile : Main@L3.1
    Format settings, CABAC : No
    Format settings, ReFrames : 2 frames
    Codec ID : avc1
    Codec ID/Info : Advanced Video Coding
    Duration : 2h 0mn
    Bit rate : 4 023 Kbps
    Width : 1 280 pixels
    Height : 532 pixels
    Display aspect ratio : 2.40:1
    Frame rate mode : Variable
    Frame rate : 23.976 fps
    Minimum frame rate : 22.727 fps
    Maximum frame rate : 25.000 fps
    Color space : YUV
    Chroma subsampling : 4:2:0
    Bit depth : 8 bits
    Scan type : Progressive
    Bits/(Pixel*Frame) : 0.246
    Stream size : 3.38 GiB (79%)
    Title : Main Program
    Language : English
    Encoded date : UTC 2016-09-28 22:20:47
    Tagged date : UTC 2016-09-28 22:21:09
    Color range : Limited
    Color primaries : BT.709
    Transfer characteristics : BT.709
    Matrix coefficients : BT.709
    Video #2
    ID : 12
    Format : JPEG
    Codec ID : jpeg
    Duration : 2h 0mn
    Bit rate mode : Variable
    Bit rate : 734 bps
    Width : 640 pixels
    Height : 266 pixels
    Display aspect ratio : 2.40:1
    Frame rate mode : Variable
    Frame rate : 0.003 fps
    Minimum frame rate : 0.002 fps
    Maximum frame rate : 0.006 fps
    Color space : YUV
    Chroma subsampling : 4:2:0
    Bit depth : 8 bits
    Compression mode : Lossy
    Bits/(Pixel*Frame) : 1.437
    Stream size : 717 KiB (0%)
    Title : Chapter Images
    Language : English
    Encoded date : UTC 2016-09-28 22:21:33
    Tagged date : UTC 2016-09-28 22:21:33
    Audio #1
    ID : 2
    Format : AAC
    Format/Info : Advanced Audio Codec
    Format profile : LC
    Codec ID : 40
    Duration : 1h 59mn
    Bit rate mode : Variable
    Bit rate : 157 Kbps
    Maximum bit rate : 232 Kbps
    Channel(s) : 2 channels
    Channel positions : Front: L R
    Sampling rate : 48.0 KHz
    Compression mode : Lossy
    Stream size : 134 MiB (3%)
    Title : Russian Stereo
    Language : Russian
    Encoded date : UTC 2016-09-28 22:20:47
    Tagged date : UTC 2016-09-28 22:21:27
    Audio #2
    ID : 3
    Format : AAC
    Format/Info : Advanced Audio Codec
    Format profile : LC
    Codec ID : 40
    Duration : 1h 59mn
    Bit rate mode : Variable
    Bit rate : 157 Kbps
    Maximum bit rate : 240 Kbps
    Channel(s) : 2 channels
    Channel positions : Front: L R
    Sampling rate : 48.0 KHz
    Compression mode : Lossy
    Stream size : 134 MiB (3%)
    Title : English Stereo
    Language : English
    Encoded date : UTC 2016-09-28 22:20:47
    Tagged date : UTC 2016-09-28 22:21:27
    Audio #3
    ID : 4
    Format : AC-3
    Format/Info : Audio Coding 3
    Mode extension : CM (complete main)
    Format settings, Endianness : Big
    Codec ID : ac-3
    Duration : 1h 59mn
    Bit rate mode : Constant
    Bit rate : 384 Kbps
    Channel(s) : 6 channels
    Channel positions : Front: L C R, Side: L R, LFE
    Sampling rate : 48.0 KHz
    Bit depth : 16 bits
    Compression mode : Lossy
    Stream size : 329 MiB (7%)
    Title : Russian DD 5.1
    Language : Russian
    Encoded date : UTC 2016-09-28 22:20:47
    Tagged date : UTC 2016-09-28 22:21:27
    Audio #4
    ID : 5
    Format : AC-3
    Format/Info : Audio Coding 3
    Mode extension : CM (complete main)
    Format settings, Endianness : Big
    Codec ID : ac-3
    Duration : 1h 59mn
    Bit rate mode : Constant
    Bit rate : 384 Kbps
    Channel(s) : 6 channels
    Channel positions : Front: L C R, Side: L R, LFE
    Sampling rate : 48.0 KHz
    Bit depth : 16 bits
    Compression mode : Lossy
    Stream size : 329 MiB (7%)
    Title : English DD 5.1
    Language : English
    Encoded date : UTC 2016-09-28 22:20:47
    Tagged date : UTC 2016-09-28 22:21:27
    Text #1
    ID : 6
    Format : Timed Text
    Muxing mode : sbtl
    Codec ID : tx3g
    Duration : 43mn 43s
    Bit rate mode : Variable
    Bit rate : 3 bps
    Stream size : 1 005 Bytes (0%)
    Title : Russian Forced
    Language : Russian
    Encoded date : UTC 2016-09-28 22:20:47
    Tagged date : UTC 2016-09-28 22:21:02
    Text #2
    ID : 7
    Format : Timed Text
    Muxing mode : sbtl
    Codec ID : tx3g
    Duration : 16mn 54s
    Bit rate mode : Variable
    Bit rate : 0 bps
    Stream size : 60.0 Bytes (0%)
    Title : English Forced
    Language : English
    Encoded date : UTC 2016-09-28 22:20:47
    Tagged date : UTC 2016-09-28 22:20:53
    Text #3
    ID : 8
    Format : Timed Text
    Muxing mode : sbtl
    Codec ID : tx3g
    Duration : 1h 50mn
    Bit rate mode : Variable
    Bit rate : 109 bps
    Stream size : 88.3 KiB (0%)
    Title : Russian Full
    Language : Russian
    Encoded date : UTC 2016-09-28 22:20:47
    Tagged date : UTC 2016-09-28 22:21:24
    Text #4
    ID : 9
    Format : Timed Text
    Muxing mode : sbtl
    Codec ID : tx3g
    Duration : 1h 50mn
    Bit rate mode : Variable
    Bit rate : 70 bps
    Stream size : 56.5 KiB (0%)
    Title : English Full
    Language : English
    Encoded date : UTC 2016-09-28 22:20:47
    Tagged date : UTC 2016-09-28 22:21:24
    Text #5
    ID : 10
    Format : Timed Text
    Muxing mode : sbtl
    Codec ID : tx3g
    Duration : 1h 50mn
    Bit rate mode : Variable
    Bit rate : 110 bps
    Stream size : 89.2 KiB (0%)
    Title : Ukrainian Full
    Language : Ukrainian
    Encoded date : UTC 2016-09-28 22:20:47
    Tagged date : UTC 2016-09-28 22:21:24
    Menu #1
    00:00:00.000 : 1
    00:05:36.378 : 2
    00:09:14.512 : 3
    00:14:05.761 : 4
    00:19:39.511 : 5
    00:22:58.042 : 6
    00:27:09.293 : 7
    00:31:36.685 : 8
    00:39:11.014 : 9
    00:43:40.158 : 10
    00:47:45.653 : 11
    00:52:31.230 : 12
    00:59:09.294 : 13
    01:01:59.172 : 14
    01:07:11.108 : 15
    01:09:53.854 : 16
    01:13:10.759 : 17
    01:18:26.491 : 18
    01:22:44.540 : 19
    01:27:50.846 : 20
    01:32:35.755 : 21
    01:39:37.176 : 22
    01:47:19.179 : 23
    01:50:35.750 : 24
    Menu #2
    ID : 11
    Codec ID : text
    Duration : 2h 0mn
    Language : English
    Encoded date : UTC 2016-09-28 22:21:27
    Tagged date : UTC 2016-09-28 22:21:27
    00:00:00.000 : 1
    00:05:36.378 : 2
    00:09:14.512 : 3
    00:14:05.761 : 4
    00:19:39.511 : 5
    00:22:58.042 : 6
    00:27:09.293 : 7
    00:31:36.685 : 8
    00:39:11.014 : 9
    00:43:40.158 : 10
    00:47:45.653 : 11
    00:52:31.230 : 12
    00:59:09.294 : 13
    01:01:59.172 : 14
    01:07:11.108 : 15
    01:09:53.854 : 16
    01:13:10.759 : 17
    01:18:26.491 : 18
    01:22:44.540 : 19
    01:27:50.846 : 20
    01:32:35.755 : 21
    01:39:37.176 : 22
    01:47:19.179 : 23
    01:50:35.750 : 24
    Bit rate mode : VBR

    Скриншоты


    -

    Релиз подготовлен для просмотра на Apple TV, iPad, iPhone, iPod Touch.
    Для просмотра данного релиза на компьютере с ОС Windows рекомендуется использовать VLC media player
    Скачать .torrent

    Скачать торрент-файл бесплатно и на максимальной скорости!

    Как скачивать? · Что такое торрент? · Рейтинг и ограничения

    !ВНИМАНИЕ!
    Сайт не распространяет и не хранит электронные версии произведений, а занимается лишь лишь предоставлением доступа к создаваемому пользователями каталогу ссылок на торрент-файлы, которые содержат только списки хеш-сумм, убедительная просьба с жалобами обращаться напрямую к пользователю. Файлы для обмена на трекере предоставлены пользователями сайта, и администрация не несёт ответственности за их содержание. Просьба не заливать файлы, защищенные авторскими правами, а также файлы нелегального содержания!


    _________________
    [Профиль] [ЛС]
    Показать сообщения:    
    Ответить на тему

    Текущее время: Сегодня, в 02:37

    Часовой пояс: GMT + 2



    Вы не можете начинать темы
    Вы не можете отвечать на сообщения
    Вы не можете редактировать свои сообщения
    Вы не можете удалять свои сообщения
    Вы не можете голосовать в опросах
    Вы не можете прикреплять файлы к сообщениям
    Вы не можете скачивать файлы