Register  ·  Log in
Forgot password?

  • Ложь во спасение / Серии: 1-4 из 4 (Андрей Верещагин) [2016, детектив, драма, криминал, WEBRip (1080p)]

    Reply to topic
    Author Message


    Post 28-Sep-2016 22:02



    Ложь во спасение--Год выпуска: 2016
    Производство: "Студия про 100 фильм"
    Жанр: детектив, драма, криминал
    Продолжительность: 00:45:00
    Субтитры: нет-Режиссёр: Андрей Верещагин-В ролях:
    Анастасия Панина, Владимир Жеребцов, Олег Каменщиков, Алексей Матошин, Любава Грешнова, Петр Рыков-Описание:
    Молодой следователь Олег находит связь между странными смертями, произошедшими в городе за последнее время, и подозревает в убийствах местного банкира Русакова.
    Он понимает, что за Русаковым стоят куда более могущественные люди, но не отступается от расследования, и его жизнь летит под откос.-Все раздачи сериала-Возраст: 12+-Качество: WEBRip (1080p)
    Формат: MKV
    Видео кодек: AVC
    Аудио кодек: AC3

    Видео: AVC, 1920 х 1080 (16:9), 25,000 кадр/сек, 2 695 Кбит/сек, 0.052 bit/pixel
    Аудио: AC3, 44100 Hz, 192 Kbps, 2 канала


    Unique ID : 263237382474368956530788068352279846674 (0xC609ACFD3A54253564CFB2741EE61F12)
    Complete name : D:\Раздачи\Ложь во спасение (1-4 серии из 4) WEB-DL (1080p).Lozh.vo.spasenie.2016.WEB-DL.1080.Files-x.mkv
    Format : Matroska
    Format version : Version 4 / Version 2
    File size : 955 MiB
    Duration : 45mn 20s
    Overall bit rate : 2 946 Kbps
    Writing application : Lavf56.25.101
    Writing library : Lavf56.25.101 / Lavf56.25.101
    ID : 1
    Format : AVC
    Format/Info : Advanced Video Codec
    Format profile : High@L4
    Format settings, CABAC : Yes
    Format settings, ReFrames : 2 frames
    Codec ID : V_MPEG4/ISO/AVC
    Duration : 45mn 20s
    Bit rate : 2 695 Kbps
    Width : 1 920 pixels
    Height : 1 080 pixels
    Display aspect ratio : 16:9
    Frame rate mode : Constant
    Frame rate : 25.000 fps
    Color space : YUV
    Chroma subsampling : 4:2:0
    Bit depth : 8 bits
    Scan type : Progressive
    Bits/(Pixel*Frame) : 0.052
    Stream size : 874 MiB (91%)
    Default : Yes
    Forced : No
    ID : 2
    Format : AC-3
    Format/Info : Audio Coding 3
    Mode extension : CM (complete main)
    Format settings, Endianness : Big
    Codec ID : A_AC3
    Duration : 45mn 20s
    Bit rate mode : Constant
    Bit rate : 192 Kbps
    Channel(s) : 2 channels
    Channel positions : Front: L R
    Sampling rate : 44.1 KHz
    Frame rate : 28.711 fps (1536 spf)
    Compression mode : Lossy
    Delay relative to video : -40ms
    Stream size : 62.3 MiB (7%)
    Default : Yes
    Forced : No

    Скриншоты сериала

    Download .torrent

    Download free and at maximum speed!

    How to Download? · What is a torrent? · Ratings and Limitations

    The site does not extend and does not store electronic(digital) versions of products, and only gives access to a reference catalogue created by users on torrent-files which contain only lists of the hash-sums, the earnest entreaty, with complaints(abuse) to access directly to the user. Files for an exchange on tracker are given by users of a site, and the administration does not bear the responsibility for their maintenance. The request to not fill in the files protected by copyrights, and also files of the illegal maintenance!

    [Profile] [PM]
    Display posts from previous:    
    Reply to topic

    The time now is: Today 16:42

    All times are GMT + 3 Hours

    You cannot post new topics in this forum
    You cannot reply to topics in this forum
    You cannot edit your posts in this forum
    You cannot delete your posts in this forum
    You cannot vote in polls in this forum
    You cannot attach files in this forum
    You cannot download files in this forum