BitTorrentTracker PerecTracker.org
BitTorrentTracker PerecTracker.org
    
Регистрация  ·  Вход
 
 · 
Забыли пароль?

  • Ложь во спасение / Серии: 1-4 из 4 (Андрей Верещагин) [2016, детектив, драма, криминал, WEBRip (1080p)]

    Ответить на тему
     
    Автор Сообщение

    rechyn

    Создавать темы 28-Сен-2016 21:02

           

    [Цитировать]

    Ложь во спасение--Год выпуска: 2016
    Производство: "Студия про 100 фильм"
    Жанр: детектив, драма, криминал
    Продолжительность: 00:45:00
    Субтитры: нет-Режиссёр: Андрей Верещагин-В ролях:
    Анастасия Панина, Владимир Жеребцов, Олег Каменщиков, Алексей Матошин, Любава Грешнова, Петр Рыков-Описание:
    Молодой следователь Олег находит связь между странными смертями, произошедшими в городе за последнее время, и подозревает в убийствах местного банкира Русакова.
    Он понимает, что за Русаковым стоят куда более могущественные люди, но не отступается от расследования, и его жизнь летит под откос.-Все раздачи сериала-Возраст: 12+-Качество: WEBRip (1080p)
    Формат: MKV
    Видео кодек: AVC
    Аудио кодек: AC3

    Видео: AVC, 1920 х 1080 (16:9), 25,000 кадр/сек, 2 695 Кбит/сек, 0.052 bit/pixel
    Аудио: AC3, 44100 Hz, 192 Kbps, 2 канала
    -

    MediaInfo

    General
    Unique ID : 263237382474368956530788068352279846674 (0xC609ACFD3A54253564CFB2741EE61F12)
    Complete name : D:\Раздачи\Ложь во спасение (1-4 серии из 4) WEB-DL (1080p).Lozh.vo.spasenie.2016.WEB-DL.1080.Files-x.mkv
    Format : Matroska
    Format version : Version 4 / Version 2
    File size : 955 MiB
    Duration : 45mn 20s
    Overall bit rate : 2 946 Kbps
    Writing application : Lavf56.25.101
    Writing library : Lavf56.25.101 / Lavf56.25.101
    Video
    ID : 1
    Format : AVC
    Format/Info : Advanced Video Codec
    Format profile : High@L4
    Format settings, CABAC : Yes
    Format settings, ReFrames : 2 frames
    Codec ID : V_MPEG4/ISO/AVC
    Duration : 45mn 20s
    Bit rate : 2 695 Kbps
    Width : 1 920 pixels
    Height : 1 080 pixels
    Display aspect ratio : 16:9
    Frame rate mode : Constant
    Frame rate : 25.000 fps
    Color space : YUV
    Chroma subsampling : 4:2:0
    Bit depth : 8 bits
    Scan type : Progressive
    Bits/(Pixel*Frame) : 0.052
    Stream size : 874 MiB (91%)
    Default : Yes
    Forced : No
    Audio
    ID : 2
    Format : AC-3
    Format/Info : Audio Coding 3
    Mode extension : CM (complete main)
    Format settings, Endianness : Big
    Codec ID : A_AC3
    Duration : 45mn 20s
    Bit rate mode : Constant
    Bit rate : 192 Kbps
    Channel(s) : 2 channels
    Channel positions : Front: L R
    Sampling rate : 44.1 KHz
    Frame rate : 28.711 fps (1536 spf)
    Compression mode : Lossy
    Delay relative to video : -40ms
    Stream size : 62.3 MiB (7%)
    Default : Yes
    Forced : No
    -

    Скриншоты сериала


    -
    Скачать .torrent

    Скачать торрент-файл бесплатно и на максимальной скорости!

    Как скачивать? · Что такое торрент? · Рейтинг и ограничения

    !ВНИМАНИЕ!
    Сайт не распространяет и не хранит электронные версии произведений, а занимается лишь лишь предоставлением доступа к создаваемому пользователями каталогу ссылок на торрент-файлы, которые содержат только списки хеш-сумм, убедительная просьба с жалобами обращаться напрямую к пользователю. Файлы для обмена на трекере предоставлены пользователями сайта, и администрация не несёт ответственности за их содержание. Просьба не заливать файлы, защищенные авторскими правами, а также файлы нелегального содержания!


    _________________
    [Профиль] [ЛС]
    Показать сообщения:    
    Ответить на тему

    Текущее время: Сегодня, в 02:07

    Часовой пояс: GMT + 2



    Вы не можете начинать темы
    Вы не можете отвечать на сообщения
    Вы не можете редактировать свои сообщения
    Вы не можете удалять свои сообщения
    Вы не можете голосовать в опросах
    Вы не можете прикреплять файлы к сообщениям
    Вы не можете скачивать файлы