BitTorrentTracker PerecTracker.org
BitTorrentTracker PerecTracker.org
    
Регистрация  ·  Вход
 
 · 
Забыли пароль?

  • Волчье солнце / Серии: 1-12 из 12 (Сергей Гинзбург) [2014, драма, приключения, WEBRip (1080p)]

    Ответить на тему
     
    Автор Сообщение

    rechyn

    Создавать темы 28-Сен-2016 21:00

           

    [Цитировать]

    Волчье солнце--Год выпуска: 2014
    Производство: "«Беларусьфильм» совместно со Star Media"
    Жанр: драма, приключения
    Продолжительность: 00:45:00
    Субтитры: нет-Режиссёр: Сергей Гинзбург-В ролях:
    Гела Месхи, Александр Робак, Владимир Ильин, Андрей Мерзликин, Екатерина Климова, Ян Фрыч, Павел Трубинер, Софья Каштанова, Ольга Красько, Максим Лагашкин, Игорь Хрипунов, Сергей Годин, Александр Суцкове-Описание:
    1924 год. Молодому чекисту Михаилу Останину удается раздобыть сверхважную информацию: через два месяца на территорию СССР начнется вторжение белоэмигрантских войск, подготовленное Британской разведкой.-Все раздачи сериала-Возраст: 12+-Качество: WEBRip (1080p)
    Формат: MKV
    Видео кодек: AVC
    Аудио кодек: AC3

    Видео: AVC, 1920 х 1080 (16:9), 25,000 кадр/сек, 2 628 Кбит/сек, 0.051 bit/pixel
    Аудио: AC3, 44100 Hz, 192 Kbps, 2 канала
    -

    MediaInfo

    General
    Unique ID : 177649618743137722052187889290801826928 (0x85A61270DCB07CC12E9BB2B563E7CC70)
    Complete name : D:\Раздачи\Волчье солнце (1-12 серии из 12) WEB-DL (1080p).Volcje.solnce.2014.WEB-DL.1080.Files-x.mkv
    Format : Matroska
    Format version : Version 4 / Version 2
    File size : 1.06 GiB
    Duration : 52mn 47s
    Overall bit rate : 2 877 Kbps
    Writing application : Lavf56.25.101
    Writing library : Lavf56.25.101 / Lavf56.25.101
    Video
    ID : 1
    Format : AVC
    Format/Info : Advanced Video Codec
    Format profile : High@L4
    Format settings, CABAC : Yes
    Format settings, ReFrames : 3 frames
    Codec ID : V_MPEG4/ISO/AVC
    Duration : 52mn 47s
    Bit rate : 2 628 Kbps
    Width : 1 920 pixels
    Height : 1 080 pixels
    Display aspect ratio : 16:9
    Frame rate mode : Constant
    Frame rate : 25.000 fps
    Color space : YUV
    Chroma subsampling : 4:2:0
    Bit depth : 8 bits
    Scan type : Progressive
    Bits/(Pixel*Frame) : 0.051
    Stream size : 992 MiB (91%)
    Default : Yes
    Forced : No
    Audio
    ID : 2
    Format : AC-3
    Format/Info : Audio Coding 3
    Mode extension : CM (complete main)
    Format settings, Endianness : Big
    Codec ID : A_AC3
    Duration : 52mn 47s
    Bit rate mode : Constant
    Bit rate : 192 Kbps
    Channel(s) : 2 channels
    Channel positions : Front: L R
    Sampling rate : 44.1 KHz
    Frame rate : 28.711 fps (1536 spf)
    Compression mode : Lossy
    Delay relative to video : -40ms
    Stream size : 72.5 MiB (7%)
    Default : Yes
    Forced : No
    -

    Скриншоты сериала


    -
    Скачать .torrent

    Скачать торрент-файл бесплатно и на максимальной скорости!

    Как скачивать? · Что такое торрент? · Рейтинг и ограничения

    !ВНИМАНИЕ!
    Сайт не распространяет и не хранит электронные версии произведений, а занимается лишь лишь предоставлением доступа к создаваемому пользователями каталогу ссылок на торрент-файлы, которые содержат только списки хеш-сумм, убедительная просьба с жалобами обращаться напрямую к пользователю. Файлы для обмена на трекере предоставлены пользователями сайта, и администрация не несёт ответственности за их содержание. Просьба не заливать файлы, защищенные авторскими правами, а также файлы нелегального содержания!


    _________________
    [Профиль] [ЛС]
    Показать сообщения:    
    Ответить на тему

    Текущее время: Сегодня, в 03:08

    Часовой пояс: GMT + 2



    Вы не можете начинать темы
    Вы не можете отвечать на сообщения
    Вы не можете редактировать свои сообщения
    Вы не можете удалять свои сообщения
    Вы не можете голосовать в опросах
    Вы не можете прикреплять файлы к сообщениям
    Вы не можете скачивать файлы