BitTorrentTracker PerecTracker.org
BitTorrentTracker PerecTracker.org
    
Регистрация  ·  Вход
 
 · 
Забыли пароль?

  • Луговая страна / Meadowland (Рид Морано / Reed Morano ) [2015, США, Драма, WEB-DL, HD (720p)] MVO + Original + sub (rus, eng)

    Ответить на тему
     
    Автор Сообщение

    rechyn

    Создавать темы 28-Сен-2016 18:15

           

    [Цитировать]

    Луговая страна / Meadowland
    «What if you had nothing left to lose but your mind?»
    5.939 / 10 5.90 / 10
    -Год выпуска: 2015
    Страна: США
    Жанр: Драма
    Продолжительность: 01:35:03
    Перевод: Многоголосый закадровый (iTunes)
    Оригинальная аудиодорожка: Есть
    Cубтитры: Русские, Английские
    Режиссёр: Рид Морано
    Сценарий: Кристофер Росси
    Продюсер: Аарон Л. Гилберт, Марго Хэнд, Мэтт Таубер
    Оператор: Рид Морано
    Композитор: Адам Тейлор
    Художник: Келли МакГихи, Миррен Гордон-Крозиер, Филиппа Кулпеппер
    Монтаж: Мадлен Гэвин
    В ролях: Джуно Темпл, Оливия Уайлд, Джон Легуизамо, Элизабет Мосс, Джованни Рибизи, Ник Сэндоу, Люк Уилсон, Мерритт Уивер, Тай Симпкинс, Марк Фойерстин
    Мировая премьера: 17 апреля 2015
    Описание: Супруги Сара и Фил сталкиваются с бедой: бесследно исчезает их сын. Фил, полицейский из Нью-Йорка, пытается заглушить горе привычными методами с обычными в таких случаях последствиями, а Сара справляется с этим другим способом: она начинает сама искать на свою голову не просто неприятности, а самые настоящие опасности.-Качество исходника: WEB-DL 720p (Кинозал)
    Качество: WEB-DL
    Тип: HD (720p)
    Контейнер: M4V
    Видео: H.264, 1280x532, 2.40:1, 4 074 Kbps, 23.976 fps
    Аудио 1: Русский/Многоголосый закадровый (iTunes), AAC / 2.0 / 160 Kbps / 48.0 KHz
    Аудио 2: Английский/Оригинальная дорожка , AAC / 2.0 / 160 Kbps / 48.0 KHz
    Аудио 3: Русский/Многоголосый закадровый (iTunes), AC-3 / 5.1 / 384 Kbps / 48.0 KHz
    Аудио 4: Английский/Оригинальная дорожка , AC-3 / 5.1 / 384 Kbps / 48.0 KHz
    Субтитры 1: Русские полные
    Субтитры 2: Английские полные
    -

    iTunes Meta Tags

    Sort Name: Meadowland
    XID: Apple:vendor_id:2015-837104
    contentID: 1034087503
    Copyright: © 2015 Meadowland Movie, LLC
    Screenwriters: Кристофер Росси
    Producers: Аарон Л. Гилберт, Марго Хэнд, Мэтт Таубер
    Director: Рид Морано
    Cast: Джуно Темпл, Оливия Уайлд, Джон Легуизамо, Элизабет Мосс, Джованни Рибизи, Ник Сэндоу, Люк Уилсон, Мерритт Уивер, Тай Симпкинс, Марк Фойерстин
    Studio: Cinedigm
    Rating: 5
    Long Description: Супруги Сара и Фил сталкиваются с бедой: бесследно исчезает их сын. Фил, полицейский из Нью-Йорка, пытается заглушить горе привычными методами с обычными в таких случаях последствиями, а Сара справляется с этим другим способом: она начинает сама искать на свою голову не просто неприятности, а самые настоящие опасности.
    Description: Супруги Сара и Фил сталкиваются с бедой: бесследно исчезает их сын. Фил, полицейский из Нью-Йорка, пытается заглушить горе привычными методами с обычными в таких случаях последствиями, а Сара справляется с этим другим способом: она начинает сама искать на свою голову не просто неприятности, а самые настоящие опасности.
    Release Date: 2015-04-17T08:00:00Z
    Genre: Drama
    Artist: Reed Morano
    Name: Meadowland

    MediaInfo

    General
    Complete name : /Users/imac/HandBrake/Meadowland.WEB-DL.720p.m4v
    Format : MPEG-4
    Codec ID : M4V
    File size : 3.43 GiB
    Duration : 1h 35mn
    Overall bit rate mode : Variable
    Overall bit rate : 5 165 Kbps
    Movie name : Meadowland
    Performer : Reed Morano
    Director : Рид Морано
    Actor : Джуно Темпл / Оливия Уайлд / Джон Легуизамо / Элизабет Мосс / Джованни Рибизи / Ник Сэндоу / Люк Уилсон / Мерритт Уивер / Тай Симпкинс / Марк Фойерстин
    Screenplay by : Кристофер Росси
    Producer : Аарон Л. Гилберт / Марго Хэнд / Мэтт Таубер
    Production studio : Cinedigm
    Genre : Drama
    ContentType : Short Film
    Description : Супруги Сара и Фил сталкиваются с бедой: бесследно исчезает их сын. Фил, полицейский из Нью-Йорка, пытается заглушить горе привычными методами с обычными в таких случаях последствиями, а Сара справляется с этим другим способом: она начинает сама искать на свою голову не просто неприятности, а самые настоящие опасности.
    Recorded date : UTC 2015-04-17 08:00:00
    Encoded date : UTC 2016-09-28 10:52:03
    Tagged date : UTC 2016-09-28 10:55:15
    Copyright : © 2015 Meadowland Movie, LLC
    Cover : Yes
    Rating : None
    Title/Sort : Meadowland
    LongDescription : Супруги Сара и Фил сталкиваются с бедой: бесследно исчезает их сын. Фил, полицейский из Нью-Йорка, пытается заглушить горе привычными методами с обычными в таких случаях последствиями, а Сара справляется с этим другим способом: она начинает сама искать на свою голову не просто неприятности, а самые настоящие опасности.
    HDVideo : Yes
    AppleStoreCatalogID : 1034087503
    Vendor : Apple:vendor_id:2015-837104
    ContentRating : mpaa|R|400|
    Video #1
    ID : 1
    Format : AVC
    Format/Info : Advanced Video Codec
    Format profile : Main@L3.1
    Format settings, CABAC : No
    Format settings, ReFrames : 2 frames
    Format settings, GOP : M=2, N=90
    Codec ID : avc1
    Codec ID/Info : Advanced Video Coding
    Duration : 1h 35mn
    Bit rate : 4 074 Kbps
    Width : 1 280 pixels
    Height : 532 pixels
    Display aspect ratio : 2.40:1
    Frame rate mode : Variable
    Frame rate : 23.976 fps
    Minimum frame rate : 23.810 fps
    Maximum frame rate : 24.390 fps
    Color space : YUV
    Chroma subsampling : 4:2:0
    Bit depth : 8 bits
    Scan type : Progressive
    Bits/(Pixel*Frame) : 0.250
    Stream size : 2.71 GiB (79%)
    Title : Main Program
    Language : English
    Encoded date : UTC 2016-09-28 10:52:03
    Tagged date : UTC 2016-09-28 10:53:11
    Color range : Limited
    Color primaries : BT.709
    Transfer characteristics : BT.709
    Matrix coefficients : BT.709
    Video #2
    ID : 9
    Format : JPEG
    Codec ID : jpeg
    Duration : 1h 35mn
    Bit rate mode : Variable
    Bit rate : 726 bps
    Width : 640 pixels
    Height : 266 pixels
    Display aspect ratio : 2.40:1
    Frame rate mode : Variable
    Frame rate : 0.003 fps
    Minimum frame rate : 0.001 fps
    Maximum frame rate : 0.006 fps
    Color space : YUV
    Chroma subsampling : 4:2:0
    Bit depth : 8 bits
    Compression mode : Lossy
    Bits/(Pixel*Frame) : 1.422
    Stream size : 473 KiB (0%)
    Title : Chapter Images
    Language : English
    Encoded date : UTC 2016-09-28 10:53:15
    Tagged date : UTC 2016-09-28 10:53:15
    Audio #1
    ID : 2
    Format : AAC
    Format/Info : Advanced Audio Codec
    Format profile : LC
    Codec ID : 40
    Duration : 1h 35mn
    Bit rate mode : Variable
    Bit rate : 157 Kbps
    Maximum bit rate : 250 Kbps
    Channel(s) : 2 channels
    Channel positions : Front: L R
    Sampling rate : 48.0 KHz
    Compression mode : Lossy
    Stream size : 107 MiB (3%)
    Title : Russian Stereo
    Language : Russian
    Encoded date : UTC 2016-09-28 10:52:03
    Tagged date : UTC 2016-09-28 10:52:09
    Audio #2
    ID : 3
    Format : AAC
    Format/Info : Advanced Audio Codec
    Format profile : LC
    Codec ID : 40
    Duration : 1h 35mn
    Bit rate mode : Variable
    Bit rate : 157 Kbps
    Maximum bit rate : 252 Kbps
    Channel(s) : 2 channels
    Channel positions : Front: L R
    Sampling rate : 48.0 KHz
    Compression mode : Lossy
    Stream size : 107 MiB (3%)
    Title : English Stereo
    Language : English
    Encoded date : UTC 2016-09-28 10:52:03
    Tagged date : UTC 2016-09-28 10:52:09
    Audio #3
    ID : 4
    Format : AC-3
    Format/Info : Audio Coding 3
    Mode extension : CM (complete main)
    Format settings, Endianness : Big
    Codec ID : ac-3
    Duration : 1h 35mn
    Bit rate mode : Constant
    Bit rate : 384 Kbps
    Channel(s) : 6 channels
    Channel positions : Front: L C R, Side: L R, LFE
    Sampling rate : 48.0 KHz
    Bit depth : 16 bits
    Compression mode : Lossy
    Stream size : 261 MiB (7%)
    Title : Russian DD 5.1
    Language : Russian
    Encoded date : UTC 2016-09-28 10:52:03
    Tagged date : UTC 2016-09-28 10:52:09
    Audio #4
    ID : 5
    Format : AC-3
    Format/Info : Audio Coding 3
    Mode extension : CM (complete main)
    Format settings, Endianness : Big
    Codec ID : ac-3
    Duration : 1h 35mn
    Bit rate mode : Constant
    Bit rate : 384 Kbps
    Channel(s) : 6 channels
    Channel positions : Front: L C R, Side: L R, LFE
    Sampling rate : 48.0 KHz
    Bit depth : 16 bits
    Compression mode : Lossy
    Stream size : 261 MiB (7%)
    Title : English DD 5.1
    Language : English
    Encoded date : UTC 2016-09-28 10:52:03
    Tagged date : UTC 2016-09-28 10:52:09
    Text #1
    ID : 6
    Format : Timed Text
    Muxing mode : sbtl
    Codec ID : tx3g
    Duration : 1h 34mn
    Bit rate mode : Variable
    Bit rate : 49 bps
    Stream size : 33.9 KiB (0%)
    Title : Russian full
    Language : Russian
    Encoded date : UTC 2016-09-28 10:52:03
    Tagged date : UTC 2016-09-28 10:52:09
    Text #2
    ID : 7
    Format : Timed Text
    Muxing mode : sbtl
    Codec ID : tx3g
    Duration : 1h 26mn
    Bit rate mode : Variable
    Bit rate : 39 bps
    Stream size : 24.6 KiB (0%)
    Title : English full
    Language : English
    Encoded date : UTC 2016-09-28 10:52:03
    Tagged date : UTC 2016-09-28 10:52:09
    Menu #1
    00:00:00.000 : 1
    00:04:23.888 : 2
    00:13:15.336 : 3
    00:20:13.420 : 4
    00:25:47.462 : 5
    00:30:54.936 : 6
    00:37:53.604 : 7
    00:41:03.752 : 8
    00:45:37.025 : 9
    00:48:30.239 : 10
    00:53:10.852 : 11
    00:57:56.761 : 12
    01:07:33.922 : 13
    01:12:23.127 : 14
    01:18:07.971 : 15
    01:23:44.015 : 16
    Menu #2
    ID : 8
    Codec ID : text
    Duration : 1h 35mn
    Language : English
    Encoded date : UTC 2016-09-28 10:53:11
    Tagged date : UTC 2016-09-28 10:53:11
    00:00:00.000 : 1
    00:04:23.888 : 2
    00:13:15.336 : 3
    00:20:13.420 : 4
    00:25:47.462 : 5
    00:30:54.936 : 6
    00:37:53.604 : 7
    00:41:03.752 : 8
    00:45:37.025 : 9
    00:48:30.239 : 10
    00:53:10.852 : 11
    00:57:56.761 : 12
    01:07:33.922 : 13
    01:12:23.127 : 14
    01:18:07.971 : 15
    01:23:44.015 : 16
    Bit rate mode : VBR

    Скриншоты


    -

    Релиз подготовлен для просмотра на Apple TV, iPad, iPhone, iPod Touch.
    Для просмотра данного релиза на компьютере с ОС Windows рекомендуется использовать VLC media player
    Скачать .torrent

    Скачать торрент-файл бесплатно и на максимальной скорости!

    Как скачивать? · Что такое торрент? · Рейтинг и ограничения

    !ВНИМАНИЕ!
    Сайт не распространяет и не хранит электронные версии произведений, а занимается лишь лишь предоставлением доступа к создаваемому пользователями каталогу ссылок на торрент-файлы, которые содержат только списки хеш-сумм, убедительная просьба с жалобами обращаться напрямую к пользователю. Файлы для обмена на трекере предоставлены пользователями сайта, и администрация не несёт ответственности за их содержание. Просьба не заливать файлы, защищенные авторскими правами, а также файлы нелегального содержания!


    _________________
    [Профиль] [ЛС]
    Показать сообщения:    
    Ответить на тему

    Текущее время: Сегодня, в 20:57

    Часовой пояс: GMT + 2



    Вы не можете начинать темы
    Вы не можете отвечать на сообщения
    Вы не можете редактировать свои сообщения
    Вы не можете удалять свои сообщения
    Вы не можете голосовать в опросах
    Вы не можете прикреплять файлы к сообщениям
    Вы не можете скачивать файлы