BitTorrentTracker PerecTracker.org
BitTorrentTracker PerecTracker.org
    
Регистрация  ·  Вход
 
 · 
Забыли пароль?

  • Не отступать и не сдаваться / No Retreat, No Surrender (Кори Юэнь / Corey Yuen) [1986, США, Гонконг, боевик, драма, BDRemux 1080p] [GER EDITION] 2x DVO (НТВ+, СТС) + Ukr (DVO, 2+2) + 7x AVO + Original Eng + Sub Rus

    Ответить на тему
     
    Автор Сообщение

    Light

    Создавать темы 28-Сен-2016 01:15

           

    [Цитировать]

    Не отступать и не сдаваться / No Retreat, No Surrender / [GER EDITION]«Tonight, He either fights for his life or he'll be running for the rest of it»СВЕТЛОЙ ПАМЯТИ_[Kim Tai-chung_(Kim Tai-jong)_Tong Lung_]_[June 5, 1957 – August 27, 2011]_Страна: США, Гонконг
    Жанр: боевик, драма
    Год выпуска: 1986
    Продолжительность: 01:38:49
    Перевод: Профессиональный (двухголосый закадровый)|DVO, НТВ+_Перевод Игоря Ильинского, текст читали: Ольга Голованова, Александр Воронов|
    Перевод 2: Профессиональный (двухголосый закадровый)|DVO, СТС|
    Перевод 3: Авторский (одноголосый закадровый)|Санаев, Павел Владимирович|
    Перевод 4: Авторский (одноголосый закадровый)|Немахов, Юрий Геннадьевич|
    Перевод 5: Авторский (одноголосый закадровый)|Товбин, Юрий Наумович|
    Перевод 6: Авторский (одноголосый закадровый)|Горчаков, Василий Овидиевич «времена видеосалонов» со вставками перевода Немахова, Юрия Геннадьевича|
    Перевод 7: Авторский (одноголосый закадровый)|Живов, Юрий Викторович|
    Перевод 8: Одноголосый закадровый|МОСФИЛЬМ_1990г, Литературный перевод Якова Храсова, редактор: Ольга Палатникова, текст читал: Сергей Мартынов, «советский кинопрокатный»|
    Перевод 9: Авторский (одноголосый закадровый)|Гаврилов, Андрей Юрьевич со вставками перевода Немахова, Юрия Геннадьевича|
    Cубтитры: 2x русские(НТВ+, Мосфильм, Сергей Мартынов)
    Оригинальная аудиодорожка: английский
    Режиссер: Кори Юэнь / Corey Yuen
    В ролях: Дж.В. У.(R.J. Madison), Курт МакКинни(Jason Stillwell), Таи Чунг Ким(Sensei Lee), Жан-Клод Ван Дамм, , Кэти Сайлено, Кент Липэм, Рон Понел, Дэйл Джейкоби, Питер Каннингэм, Тимоти Д. Бэйкер.
    Описание: Парнишка, изучающий восточные единоборства и мечтающий стать чемпионом, бесстрашно вступает в борьбу с уголовниками и шпаной и зарабатывает сперва лишь синяки и насмешки окружающих.
    Но в награду за проявленную силу духа, настойчивость и упорную работу на тренировках до седьмого пота, ему начинает покровительствовать и обучать его всем секретам мастерства дух самого Брюса Ли. И, сразившись в большом турнире с грозным русским противником, молодой американский кикбоксер сенсационно, вопреки ожиданиям зрителей и прогнозам специалистов, побеждает.
    Сэмпл: https://yadi.sk/i/EcvOqxRkvkjzL
    Тип релиза: BDRemux 1080p
    Контейнер: MKV
    Видео: MPEG-4 AVC Video / 22994 kbps / 1080p / 23.976 fps / 16:9 / High Profile 4.1
    Аудио: Russian: 48 kHz, АС3, 2 ch, 192 kbps / 16-bit|DVO, НТВ+_Перевод Игоря Ильинского, текст читали: Ольга Голованова, Александр Воронов|
    Аудио 2: Russian: 48 kHz, АС3, 2 ch, 192 kbps / 16-bit|DVO, СТС|
    Аудио 3: Ukrainian: 48 kHz, АС3, 2 ch, 192 kbps / 16-bit|DVO, 2+2|
    Аудио 4: Russian: 48 kHz, АС3, 2 ch, 192 kbps / 16-bit|Санаев, Павел Владимирович|
    Аудио 5: Russian: 48 kHz, АС3, 2 ch, 192 kbps / 16-bit|Немахов, Юрий Геннадьевич|
    Аудио 6: Russian: 48 kHz, АС3, 2 ch, 192 kbps / 16-bit|Товбин, Юрий Наумович|
    Аудио 7: Russian: 48 kHz, АС3, 2 ch, 192 kbps / 16-bit|Горчаков, Василий Овидиевич «времена видеосалонов» со вставками перевода Немахова, Юрия Геннадьевича|
    Аудио 8: Russian: 48 kHz, АС3, 2 ch, 192 kbps / 16-bit|Живов, Юрий Викторович|
    Аудио 9: Russian: 48 kHz, АС3, 2 ch, 192 kbps / 16-bit|МОСФИЛЬМ_1990г, Литературный перевод Якова Храсова, редактор: Ольга Палатникова, текст читал: Сергей Мартынов, «советский кинопрокатный»|
    Аудио 10:Russian DTS-HD MA 2.0 48 kHz 2112 kbps 24-bit (DTS Core: 2.0 / 48 kHz / 1509 kbps / 24-bit)|Гаврилов, Андрей Юрьевич со вставками перевода Немахова, Юрия Геннадьевича|
    Аудио 11:English DTS-HD MA 2.0 48 kHz 2104 kbps 24-bit (DTS Core: 2.0 / 48 kHz / 1509 kbps / 24-bit)|original|
    Формат субтитров: softsub (SRT)

    MediaInfo

    Общее
    Уникальный идентификатор : 222265839077285054667426479815568546621 (0xA736D7F03A3953B6B2D575C3D3225B3D)
    Полное имя : C:\V.S.P\movie\Jason Stillwell & J.W. Fails & Kim Tai-chung_(Kim Tai-jong)_Tong Lung\No Retreat, No Surrender_1986г\No Retreat, No Surrender_1986г_Jason Stillwell & J.W. Fails & Kim Tai-chung_(Kim Tai-jong)_Tong Lung_(June 5, 1957 – August 27, 2011)_.mkv
    Формат : Matroska
    Версия формата : Version 4 / Version 2
    Размер файла : 20,0 Гбайт
    Продолжительность : 1 ч. 39 м.
    Режим общего битрейта : Переменный
    Общий поток : 28,9 Мбит/сек
    Название фильма : No Retreat, No Surrender_1986г_Jason Stillwell & J.W. Fails & Kim Tai-chung_(Kim Tai-jong)_Tong Lung_(June 5, 1957 – August 27, 2011)_
    Дата кодирования : UTC 2016-09-26 17:50:05
    Программа кодирования : mkvmerge v6.9.1 ('Blue Panther') 64bit built on Apr 18 2014 18:23:38
    Библиотека кодирования : libebml v1.3.0 + libmatroska v1.4.1
    Видео
    Идентификатор : 1
    Формат : AVC
    Формат/Информация : Advanced Video Codec
    Профиль формата : High@L4.1
    Параметр CABAC формата : Да
    Параметр ReFrames формата : 4 кадра
    Идентификатор кодека : V_MPEG4/ISO/AVC
    Продолжительность : 1 ч. 39 м.
    Вид битрейта : Переменный
    Максимальный битрейт : 37,0 Мбит/сек
    Ширина : 1920 пикселей
    Высота : 1080 пикселей
    Соотношение сторон : 16:9
    Режим частоты кадров : Постоянный
    Частота кадров : 23,976 кадра/сек
    Цветовое пространство : YUV
    Субдискретизация насыщенности : 4:2:0
    Битовая глубина : 8 бит
    Тип развёртки : Прогрессивная
    Заголовок : No Retreat, No Surrender_1986г_Jason Stillwell & J.W. Fails & Kim Tai-chung_(Kim Tai-jong)_Tong Lung_(June 5, 1957 – August 27, 2011)_
    Язык : English
    Default : Да
    Forced : Нет
    Аудио #1
    Идентификатор : 2
    Формат : AC-3
    Формат/Информация : Audio Coding 3
    Расширение режима : CM (complete main)
    Параметр Endianness формата : Big
    Идентификатор кодека : A_AC3
    Продолжительность : 1 ч. 39 м.
    Вид битрейта : Постоянный
    Битрейт : 192 Кбит/сек
    Каналы : 2 канала
    Расположение каналов : Front: L R
    Частота : 48,0 КГц
    Битовая глубина : 16 бит
    Метод сжатия : С потерями
    Размер потока : 136 Мбайт (1%)
    Заголовок : |DVO, НТВ+_Перевод Игоря Ильинского, текст читали: Ольга Голованова & Александр Воронов|
    Язык : Russian
    Default : Да
    Forced : Нет
    Аудио #2
    Идентификатор : 3
    Формат : AC-3
    Формат/Информация : Audio Coding 3
    Расширение режима : CM (complete main)
    Параметр Endianness формата : Big
    Идентификатор кодека : A_AC3
    Продолжительность : 1 ч. 39 м.
    Вид битрейта : Постоянный
    Битрейт : 192 Кбит/сек
    Каналы : 2 канала
    Расположение каналов : Front: L R
    Частота : 48,0 КГц
    Битовая глубина : 16 бит
    Метод сжатия : С потерями
    Размер потока : 136 Мбайт (1%)
    Заголовок : |DVO, СТС|
    Язык : Russian
    Default : Нет
    Forced : Нет
    Аудио #3
    Идентификатор : 4
    Формат : AC-3
    Формат/Информация : Audio Coding 3
    Расширение режима : CM (complete main)
    Параметр Endianness формата : Big
    Идентификатор кодека : A_AC3
    Продолжительность : 1 ч. 39 м.
    Вид битрейта : Постоянный
    Битрейт : 192 Кбит/сек
    Каналы : 2 канала
    Расположение каналов : Front: L R
    Частота : 48,0 КГц
    Битовая глубина : 16 бит
    Метод сжатия : С потерями
    Размер потока : 136 Мбайт (1%)
    Заголовок : |DVO, 2+2|
    Язык : Ukrainian
    Default : Нет
    Forced : Нет
    Аудио #4
    Идентификатор : 5
    Формат : AC-3
    Формат/Информация : Audio Coding 3
    Расширение режима : CM (complete main)
    Параметр Endianness формата : Big
    Идентификатор кодека : A_AC3
    Продолжительность : 1 ч. 39 м.
    Вид битрейта : Постоянный
    Битрейт : 192 Кбит/сек
    Каналы : 2 канала
    Расположение каналов : Front: L R
    Частота : 48,0 КГц
    Битовая глубина : 16 бит
    Метод сжатия : С потерями
    Размер потока : 136 Мбайт (1%)
    Заголовок : |Санаев, Павел Владимирович|
    Язык : Russian
    Default : Нет
    Forced : Нет
    Аудио #5
    Идентификатор : 6
    Формат : AC-3
    Формат/Информация : Audio Coding 3
    Расширение режима : CM (complete main)
    Параметр Endianness формата : Big
    Идентификатор кодека : A_AC3
    Продолжительность : 1 ч. 39 м.
    Вид битрейта : Постоянный
    Битрейт : 192 Кбит/сек
    Каналы : 2 канала
    Расположение каналов : Front: L R
    Частота : 48,0 КГц
    Битовая глубина : 16 бит
    Метод сжатия : С потерями
    Размер потока : 136 Мбайт (1%)
    Заголовок : |Немахов, Юрий Геннадьевич|
    Язык : Russian
    Default : Нет
    Forced : Нет
    Аудио #6
    Идентификатор : 7
    Формат : AC-3
    Формат/Информация : Audio Coding 3
    Расширение режима : CM (complete main)
    Параметр Endianness формата : Big
    Идентификатор кодека : A_AC3
    Продолжительность : 1 ч. 39 м.
    Вид битрейта : Постоянный
    Битрейт : 192 Кбит/сек
    Каналы : 2 канала
    Расположение каналов : Front: L R
    Частота : 48,0 КГц
    Битовая глубина : 16 бит
    Метод сжатия : С потерями
    Размер потока : 136 Мбайт (1%)
    Заголовок : |Товбин, Юрий Наумович|
    Язык : Russian
    Default : Нет
    Forced : Нет
    Аудио #7
    Идентификатор : 8
    Формат : AC-3
    Формат/Информация : Audio Coding 3
    Расширение режима : CM (complete main)
    Параметр Endianness формата : Big
    Идентификатор кодека : A_AC3
    Продолжительность : 1 ч. 39 м.
    Вид битрейта : Постоянный
    Битрейт : 192 Кбит/сек
    Каналы : 2 канала
    Расположение каналов : Front: L R
    Частота : 48,0 КГц
    Битовая глубина : 16 бит
    Метод сжатия : С потерями
    Размер потока : 136 Мбайт (1%)
    Заголовок : |Горчаков, Василий Овидиевич «времена видеосалонов» со вставками перевода Немахова, Юрия Геннадьевича|
    Язык : Russian
    Default : Нет
    Forced : Нет
    Аудио #8
    Идентификатор : 9
    Формат : AC-3
    Формат/Информация : Audio Coding 3
    Расширение режима : CM (complete main)
    Параметр Endianness формата : Big
    Идентификатор кодека : A_AC3
    Продолжительность : 1 ч. 39 м.
    Вид битрейта : Постоянный
    Битрейт : 192 Кбит/сек
    Каналы : 2 канала
    Расположение каналов : Front: L R
    Частота : 48,0 КГц
    Битовая глубина : 16 бит
    Метод сжатия : С потерями
    Размер потока : 136 Мбайт (1%)
    Заголовок : |Живов, Юрий Викторович|
    Язык : Russian
    Default : Нет
    Forced : Нет
    Аудио #9
    Идентификатор : 10
    Формат : AC-3
    Формат/Информация : Audio Coding 3
    Расширение режима : CM (complete main)
    Параметр Endianness формата : Big
    Идентификатор кодека : A_AC3
    Продолжительность : 1 ч. 39 м.
    Вид битрейта : Постоянный
    Битрейт : 192 Кбит/сек
    Каналы : 2 канала
    Расположение каналов : Front: L R
    Частота : 48,0 КГц
    Битовая глубина : 16 бит
    Метод сжатия : С потерями
    Размер потока : 136 Мбайт (1%)
    Заголовок : |МОСФИЛЬМ_1990г, Литературный перевод Якова Храсова, редактор: Ольга Палатникова, текст читал: Сергей Мартынов, «советский кинопрокатный»|
    Язык : Russian
    Default : Нет
    Forced : Нет
    Аудио #10
    Идентификатор : 11
    Формат : DTS
    Формат/Информация : Digital Theater Systems
    Профиль формата : MA / Core
    Режим : 16
    Параметр Endianness формата : Big
    Идентификатор кодека : A_DTS
    Продолжительность : 1 ч. 39 м.
    Вид битрейта : Переменный
    Битрейт : Неизвестно / 1509 Кбит/сек
    Каналы : 2 канала
    Расположение каналов : Front: L R
    Частота : 48,0 КГц
    Битовая глубина : 24 бит
    Метод сжатия : Без потерь / Lossy
    Заголовок : |Гаврилов, Андрей Юрьевич со вставками перевода Немахова, Юрия Геннадьевича|
    Язык : Russian
    Default : Нет
    Forced : Нет
    Аудио #11
    Идентификатор : 12
    Формат : DTS
    Формат/Информация : Digital Theater Systems
    Профиль формата : MA / Core
    Режим : 16
    Параметр Endianness формата : Big
    Идентификатор кодека : A_DTS
    Продолжительность : 1 ч. 39 м.
    Вид битрейта : Переменный
    Битрейт : Неизвестно / 1509 Кбит/сек
    Каналы : 2 канала
    Расположение каналов : Front: L R
    Частота : 48,0 КГц
    Битовая глубина : 24 бит
    Метод сжатия : Без потерь / Lossy
    Заголовок : |original|
    Язык : English
    Default : Нет
    Forced : Нет
    Текст #1
    Идентификатор : 13
    Формат : UTF-8
    Идентификатор кодека : S_TEXT/UTF8
    Идентификатор кодека/Информация : UTF-8 Plain Text
    Заголовок : DVO, НТВ+
    Язык : Russian
    Default : Нет
    Forced : Нет
    Текст #2
    Идентификатор : 14
    Формат : UTF-8
    Идентификатор кодека : S_TEXT/UTF8
    Идентификатор кодека/Информация : UTF-8 Plain Text
    Заголовок : Мосфильм, Сергей Мартынов
    Язык : Russian
    Default : Нет
    Forced : Нет
    Меню
    00:00:00.000 : en:Chapter 1
    00:09:20.977 : en:Chapter 2
    00:15:27.927 : en:Chapter 3
    00:26:10.694 : en:Chapter 4
    00:37:15.149 : en:Chapter 5
    00:45:49.204 : en:Chapter 6
    00:53:45.096 : en:Chapter 7
    01:01:32.647 : en:Chapter 8
    01:10:15.377 : en:Chapter 9
    01:17:44.618 : en:Chapter 10
    01:26:39.152 : en:Chapter 11
    01:36:56.894 : en:Chapter 12
    01:39:07.650 : en:Chapter 13

    Скриншоты

    Интересные Факты

    Фильм посвящён памяти Брюса Ли.
    Постановщиком боёв был «Харрисон» Манг Хой.
    Полная версия фильма имеет хронометраж 99 минут.
    На момент релиза Жан-Клод Ван Дамм был ещё неизвестным актером. Его гонорар составил $250.
    Существуют 3 версии фильма: основная американская (85 минут), британская VHS-видеоверсия 1986 года (79 минут) и полная британская DVD-видеоверсия (94 минуты).
    Цитата:
    Цитата:


    За немецкое издание громадное спасибо хочу выразить Skazhutin(hdclub)

    За набивку саб по переводам НТВ+ & Мосфильм, Сергей Мартынов громадное спасибо хочу выразить Нурмухаметову, Данису Василовичу.
    Скачать .torrent

    Скачать торрент-файл бесплатно и на максимальной скорости!

    Как скачивать? · Что такое торрент? · Рейтинг и ограничения

    !ВНИМАНИЕ!
    Сайт не распространяет и не хранит электронные версии произведений, а занимается лишь лишь предоставлением доступа к создаваемому пользователями каталогу ссылок на торрент-файлы, которые содержат только списки хеш-сумм, убедительная просьба с жалобами обращаться напрямую к пользователю. Файлы для обмена на трекере предоставлены пользователями сайта, и администрация не несёт ответственности за их содержание. Просьба не заливать файлы, защищенные авторскими правами, а также файлы нелегального содержания!


    _________________
    [Профиль] [ЛС]
    Показать сообщения:    
    Ответить на тему

    Текущее время: Сегодня, в 22:57

    Часовой пояс: GMT + 2



    Вы не можете начинать темы
    Вы не можете отвечать на сообщения
    Вы не можете редактировать свои сообщения
    Вы не можете удалять свои сообщения
    Вы не можете голосовать в опросах
    Вы не можете прикреплять файлы к сообщениям
    Вы не можете скачивать файлы