BitTorrentTracker PerecTracker.org
BitTorrentTracker PerecTracker.org
    
Регистрация  ·  Вход
 
 · 
Забыли пароль?

  • Власть в ночном городе / Power / Сезон: 3 / Серии: 1-10 из 10 (Джон Дэвид Коулз, Энтони Хемингуэй, Джордж Тиллман мл.) [2016, Драма, Криминал, HDTVRip] MVO (Amedia) + Original

    Ответить на тему
     
    Автор Сообщение

    rechyn

    Создавать темы 27-Сен-2016 22:54

           

    [Цитировать]

    -Власть в ночном городе | Power--• Год выпуска: 2016
    • Страна: США
    • Жанр: Драма, Криминал
    • Продолжительность: ~ 00:55:00-• Перевод: Профессиональный (многоголосый закадровый) | Amedia-• Режиссёр: Джон Дэвид Коулз, Энтони Хемингуэй, Джордж Тиллман мл.-• В ролях: Луис Рамос, Адам Хасс, Люси Уолтерс, Винисиус Мачадо, Лесли Лопез, Кэтрин Нардуччи, Шэйн Джонсон, Дж.Р. Рамирез, Омари Хардвик, Лела Лорен-• Описание: Заработав немало денег на нелегальной торговле наркотиками, хозяин ночного клуба планирует легализировать свой капитал. Он хочет занять достойное место в высших слоях нью-йоркской элиты, куда закрыт доступ всякого рода драгдилерам. Безусловно, деньги и власть в ночном городе неразделимые понятия, но нужна ещё определенная респектабельность и репутация, позволяющие вполне официально управлять городом и влиять на ход событий.--Ссылка на предыдущие и альтернативные раздачи-• Качество: HDTVRip
    • Формат: AVI
    • Видео: XviD, 720x400 (16:9), 25 fps, ~1300 kbps
    • Аудио #1: MP3, 48 kHz, 2 ch, 128 kbps, CBR - Rus
    • Аудио #2: MP3, 48 kHz, 2 ch, 128 kbps, CBR - Eng
    • Субтитры: отсутствуют-

    ✘ MediaInfo ✘

    Формат                                   : AVI
    Формат/Информация                        : Audio Video Interleave
    Размер файла                             : 601 Мбайт
    Продолжительность                        : 52 м.
    Общий поток                              : 1590 Кбит/сек
    Программа кодирования                    : VirtualDubMod 1.5.10.3 | www.virtualdub-fr.org || (build 2550/release)
    Библиотека кодирования                   : VirtualDubMod build 2550/release
    Видео
    Идентификатор                            : 0
    Формат                                   : MPEG-4 Visual
    Профиль формата                          : Advanced Simple@L5
    Параметр BVOP формата                    : 2
    Параметр QPel формата                    : Нет
    Параметр GMC формата                     : Без точки перехода
    Параметр матрицы формата                 : Выборочная
    Идентификатор кодека                     : XVID
    Идентификатор кодека/Подсказка           : XviD
    Продолжительность                        : 52 м.
    Битрейт                                  : 1320 Кбит/сек
    Ширина                                   : 720 пикселей
    Высота                                   : 400 пикселей
    Соотношение сторон                       : 16:9
    Частота кадров                           : 25,000 кадров/сек
    Цветовое пространство                    : YUV
    Субдискретизация насыщенности            : 4:2:0
    Битовая глубина                          : 8 бит
    Тип развёртки                            : Прогрессивная
    Метод сжатия                             : С потерями
    Бит/(Пиксели*Кадры)                      : 0.183
    Размер потока                            : 499 Мбайт (83%)
    Библиотека кодирования                   : XviD 73
    Аудио #1
    Идентификатор                            : 1
    Формат                                   : MPEG Audio
    Версия формата                           : Version 1
    Профиль формата                          : Layer 3
    Режим                                    : Joint stereo
    Расширение режима                        : MS Stereo
    Идентификатор кодека                     : 55
    Идентификатор кодека/Подсказка           : MP3
    Продолжительность                        : 52 м.
    Вид битрейта                             : Постоянный
    Битрейт                                  : 128 Кбит/сек
    Каналы                                   : 2 канала
    Частота                                  : 48,0 КГц
    Метод сжатия                             : С потерями
    Размер потока                            : 48,4 Мбайт (8%)
    Выравнивание                             : Соединение по промежуткам
    Продолжительность промежутка             : 40  мс. (1,00 видеокадр)
    Время предзагрузки промежутка            : 504  мс.
    Аудио #2
    Идентификатор                            : 2
    Формат                                   : MPEG Audio
    Версия формата                           : Version 1
    Профиль формата                          : Layer 3
    Режим                                    : Joint stereo
    Расширение режима                        : MS Stereo
    Идентификатор кодека                     : 55
    Идентификатор кодека/Подсказка           : MP3
    Продолжительность                        : 52 м.
    Вид битрейта                             : Постоянный
    Битрейт                                  : 128 Кбит/сек
    Каналы                                   : 2 канала
    Частота                                  : 48,0 КГц
    Метод сжатия                             : С потерями
    Размер потока                            : 48,4 Мбайт (8%)
    Выравнивание                             : Соединение по промежуткам
    Продолжительность промежутка             : 40  мс. (1,00 видеокадр)
    Время предзагрузки промежутка            : 504  мс.

    ✘ Скриншоты ✘

    -
    Скачать .torrent

    Скачать торрент-файл бесплатно и на максимальной скорости!

    Как скачивать? · Что такое торрент? · Рейтинг и ограничения

    !ВНИМАНИЕ!
    Сайт не распространяет и не хранит электронные версии произведений, а занимается лишь лишь предоставлением доступа к создаваемому пользователями каталогу ссылок на торрент-файлы, которые содержат только списки хеш-сумм, убедительная просьба с жалобами обращаться напрямую к пользователю. Файлы для обмена на трекере предоставлены пользователями сайта, и администрация не несёт ответственности за их содержание. Просьба не заливать файлы, защищенные авторскими правами, а также файлы нелегального содержания!


    _________________
    [Профиль] [ЛС]
    Показать сообщения:    
    Ответить на тему

    Текущее время: Сегодня, в 06:07

    Часовой пояс: GMT + 2



    Вы не можете начинать темы
    Вы не можете отвечать на сообщения
    Вы не можете редактировать свои сообщения
    Вы не можете удалять свои сообщения
    Вы не можете голосовать в опросах
    Вы не можете прикреплять файлы к сообщениям
    Вы не можете скачивать файлы