BitTorrentTracker PerecTracker.org
BitTorrentTracker PerecTracker.org
    
Регистрация  ·  Вход
 
 · 
Забыли пароль?

  • Судная ночь 3 / The Purge: Election Year (Джеймс ДеМонако / James DeMonaco ) [2016, США, Франция, Ужасы, фантастика, боевик, триллер, BDRip, HD (720p)] DUB + Original + sub (eng)

    Ответить на тему
     
    Автор Сообщение

    rechyn

    Создавать темы 27-Сен-2016 16:55

           

    [Цитировать]

    Судная ночь 3 / The Purge: Election Year
    «Один раз в году все преступления законны»
    5.63 / 10 6.10 / 10
    -Год выпуска: 2016
    Страна: США, Франция
    Жанр: Ужасы, фантастика, боевик, триллер
    Продолжительность: 01:48:47
    Перевод: Дублированный (iTunes)
    Оригинальная аудиодорожка: Есть
    Cубтитры: Английские
    Режиссёр: Джеймс ДеМонако
    Сценарий: Джеймс ДеМонако
    Продюсер: Майкл Бэй, Джейсон Блум, Филлип Дейв
    Оператор: Жак Жуффре
    Композитор: Нэйтан Уайтхед
    Художник: Шэрон Ломофски, Дэвид Бланкеншип, Лиз Вастола
    Монтаж: Тодд Е. Миллер
    В ролях: Фрэнк Грилло, Элизабет Митчелл, Майкелти Уильямсон, Джозеф Джулиан Сория, Бетти Гэбриел, Терри Серпико, Эдвин Ходж, Кайл Сикор, Бэрри Нолан, Лиза Колон-Зайас
    Бюджет: $10 000 000
    Сборы в США: $79 042 440
    Сборы в мире: + $36 300 000 = $115 342 440
    Сборы в России: $824 491
    Мировая премьера: 29 июня 2016
    Премьера (РФ): 28 июля 2016, «UPI»
    Описание: Добро пожаловать в идеальное будущее, в котором Судная ночь превратилась в международный тренд. Туристы со всего мира прибывают в аэропорты Америки: ведь всего лишь раз в году здесь позволено все, главное — дожить до рассвета.-Качество исходника: BDRemux (HDCLub)
    Качество: BDRip
    Тип: HD (720p)
    Контейнер: M4V
    Видео: H.264, 1280x536, 2.40:1, 3 500 Kbps, 23.976 fps
    Аудио 1: Русский/Дублированный (iTunes), AAC / 2.0 / 160 Kbps / 48.0 KHz
    Аудио 2: Английский/Оригинальная дорожка , AAC / 2.0 / 160 Kbps / 48.0 KHz
    Аудио 3: Русский/Дублированный (iTunes), AC-3 / 5.1 / 384 Kbps / 48.0 KHz
    Аудио 4: Английский/Оригинальная дорожка , AC-3 / 5.1 / 640 Kbps / 48.0 KHz
    Субтитры: Английские полные
    -

    iTunes Meta Tags

    Sort Name: Purge: Election Year
    XID: Apple:vendor_id:2016-843907
    contentID: 1125555618
    Copyright: © 2016 Universal Studios. All Rights Reserved.
    Screenwriters: Джеймс ДеМонако
    Producers: Майкл Бэй, Джейсон Блум, Филлип Дейв
    Director: Джеймс ДеМонако
    Cast: Фрэнк Грилло, Элизабет Митчелл, Майкелти Уильямсон, Джозеф Джулиан Сория, Бетти Гэбриел, Терри Серпико, Эдвин Ходж, Кайл Сикор, Бэрри Нолан, Лиза Колон-Зайас
    Studio: Universal Pictures
    Rating Annotation: Rated R for disturbing bloody violence and strong language.
    Rating: 5
    Long Description: Добро пожаловать в идеальное будущее, в котором Судная ночь превратилась в международный тренд. Туристы со всего мира прибывают в аэропорты Америки: ведь всего лишь раз в году здесь позволено все, главное - дожить до рассвета.
    Description: Добро пожаловать в идеальное будущее, в котором Судная ночь превратилась в международный тренд. Туристы со всего мира прибывают в аэропорты Америки: ведь всего лишь раз в году здесь позволено все, главное - дожить до рассвета.
    Release Date: 2016-06-29T08:00:00Z
    Genre: Horror
    Artist: James DeMonaco
    Name: The Purge: Election Year

    MediaInfo

    General
    Complete name : /Users/imac/HandBrake/The Purge- Election Year (720p HD).m4v
    Format : MPEG-4
    Codec ID : M4V
    File size : 3.68 GiB
    Duration : 1h 48mn
    Overall bit rate mode : Variable
    Overall bit rate : 4 844 Kbps
    Movie name : The Purge: Election Year
    Performer : James DeMonaco
    Director : Джеймс ДеМонако
    Actor : Фрэнк Грилло / Элизабет Митчелл / Майкелти Уильямсон / Джозеф Джулиан Сория / Бетти Гэбриел / Терри Серпико / Эдвин Ходж / Кайл Сикор / Бэрри Нолан / Лиза Колон-Зайас
    Screenplay by : Джеймс ДеМонако
    Producer : Майкл Бэй / Джейсон Блум / Филлип Дейв
    Production studio : Universal Pictures
    Genre : Horror
    ContentType : Short Film
    Description : Добро пожаловать в идеальное будущее, в котором Судная ночь превратилась в международный тренд. Туристы со всего мира прибывают в аэропорты Америки: ведь всего лишь раз в году здесь позволено все, главное - дожить до рассвета.
    Recorded date : UTC 2016-06-29 08:00:00
    Encoded date : UTC 2016-09-27 11:31:42
    Tagged date : UTC 2016-09-27 11:33:05
    Copyright : © 2016 Universal Studios. All Rights Reserved.
    Cover : Yes
    Rating : None
    Title/Sort : Purge: Election Year
    LongDescription : Добро пожаловать в идеальное будущее, в котором Судная ночь превратилась в международный тренд. Туристы со всего мира прибывают в аэропорты Америки: ведь всего лишь раз в году здесь позволено все, главное - дожить до рассвета.
    HDVideo : Yes
    AppleStoreCatalogID : 1125555618
    Vendor : Apple:vendor_id:2016-843907
    ContentRating : mpaa|R|400|Rated R for disturbing bloody violence and strong language.
    Video #1
    ID : 1
    Format : AVC
    Format/Info : Advanced Video Codec
    Format profile : High@L3.1
    Format settings, CABAC : No
    Format settings, ReFrames : 3 frames
    Codec ID : avc1
    Codec ID/Info : Advanced Video Coding
    Duration : 1h 48mn
    Source duration : 1h 48mn
    Bit rate : 3 500 Kbps
    Width : 1 280 pixels
    Height : 536 pixels
    Display aspect ratio : 2.40:1
    Frame rate mode : Variable
    Frame rate : 23.976 fps
    Minimum frame rate : 23.974 fps
    Maximum frame rate : 23.981 fps
    Color space : YUV
    Chroma subsampling : 4:2:0
    Bit depth : 8 bits
    Scan type : Progressive
    Bits/(Pixel*Frame) : 0.213
    Stream size : 2.66 GiB (72%)
    Source stream size : 2.66 GiB (72%)
    Title : Main Program
    Writing library : x264 core 142 r2479 dd79a61
    Encoding settings : cabac=0 / ref=3 / deblock=1:-3:-3 / analyse=0x3:0x113 / me=umh / subme=9 / psy=1 / psy_rd=1.00:0.15 / mixed_ref=1 / me_range=32 / chroma_me=1 / trellis=0 / 8x8dct=1 / cqm=0 / deadzone=21,11 / fast_pskip=0 / chroma_qp_offset=-2 / threads=36 / lookahead_threads=3 / sliced_threads=0 / nr=0 / decimate=0 / interlaced=0 / bluray_compat=0 / constrained_intra=0 / bframes=3 / b_pyramid=0 / b_adapt=2 / b_bias=0 / direct=1 / weightb=0 / open_gop=0 / weightp=0 / keyint=240 / keyint_min=24 / scenecut=40 / intra_refresh=0 / rc_lookahead=40 / rc=2pass / mbtree=1 / bitrate=3500 / ratetol=1.0 / qcomp=0.65 / qpmin=0 / qpmax=69 / qpstep=4 / cplxblur=20.0 / qblur=0.5 / vbv_maxrate=9500 / vbv_bufsize=9500 / nal_hrd=none / filler=0 / ip_ratio=1.40 / aq=1:1.10
    Language : English
    Encoded date : UTC 2016-09-27 11:31:42
    Tagged date : UTC 2016-09-27 11:31:48
    Color range : Limited
    Color primaries : BT.709
    Transfer characteristics : BT.709
    Matrix coefficients : BT.709
    Video #2
    ID : 8
    Format : JPEG
    Codec ID : jpeg
    Duration : 1h 48mn
    Bit rate mode : Variable
    Bit rate : 621 bps
    Width : 640 pixels
    Height : 268 pixels
    Display aspect ratio : 2.40:1
    Frame rate mode : Variable
    Frame rate : 0.003 fps
    Minimum frame rate : 0.002 fps
    Maximum frame rate : 0.008 fps
    Color space : YUV
    Chroma subsampling : 4:2:0
    Bit depth : 8 bits
    Compression mode : Lossy
    Bits/(Pixel*Frame) : 1.207
    Stream size : 506 KiB (0%)
    Title : Chapter Images
    Language : English
    Encoded date : UTC 2016-09-27 11:32:26
    Tagged date : UTC 2016-09-27 11:32:27
    Audio #1
    ID : 2
    Format : AAC
    Format/Info : Advanced Audio Codec
    Format profile : LC
    Codec ID : 40
    Duration : 1h 48mn
    Bit rate mode : Variable
    Bit rate : 156 Kbps
    Maximum bit rate : 255 Kbps
    Channel(s) : 2 channels
    Channel positions : Front: L R
    Sampling rate : 48.0 KHz
    Compression mode : Lossy
    Stream size : 121 MiB (3%)
    Title : Russian Stereo
    Language : Russian
    Encoded date : UTC 2016-09-27 11:31:42
    Tagged date : UTC 2016-09-27 11:32:22
    Audio #2
    ID : 3
    Format : AAC
    Format/Info : Advanced Audio Codec
    Format profile : LC
    Codec ID : 40
    Duration : 1h 48mn
    Bit rate mode : Variable
    Bit rate : 157 Kbps
    Maximum bit rate : 263 Kbps
    Channel(s) : 2 channels
    Channel positions : Front: L R
    Sampling rate : 48.0 KHz
    Compression mode : Lossy
    Stream size : 122 MiB (3%)
    Title : English Stereo
    Language : English
    Encoded date : UTC 2016-09-27 11:31:42
    Tagged date : UTC 2016-09-27 11:32:22
    Audio #3
    ID : 4
    Format : AC-3
    Format/Info : Audio Coding 3
    Mode extension : CM (complete main)
    Format settings, Endianness : Big
    Codec ID : ac-3
    Duration : 1h 48mn
    Bit rate mode : Constant
    Bit rate : 384 Kbps
    Channel(s) : 6 channels
    Channel positions : Front: L C R, Side: L R, LFE
    Sampling rate : 48.0 KHz
    Bit depth : 16 bits
    Compression mode : Lossy
    Stream size : 299 MiB (8%)
    Title : Russian DD 5.1
    Language : Russian
    Encoded date : UTC 2016-09-27 11:31:42
    Tagged date : UTC 2016-09-27 11:32:22
    Audio #4
    ID : 5
    Format : AC-3
    Format/Info : Audio Coding 3
    Mode extension : CM (complete main)
    Format settings, Endianness : Big
    Codec ID : ac-3
    Duration : 1h 48mn
    Bit rate mode : Constant
    Bit rate : 640 Kbps
    Channel(s) : 6 channels
    Channel positions : Front: L C R, Side: L R, LFE
    Sampling rate : 48.0 KHz
    Bit depth : 16 bits
    Compression mode : Lossy
    Stream size : 498 MiB (13%)
    Title : English DD 5.1
    Language : English
    Encoded date : UTC 2016-09-27 11:31:42
    Tagged date : UTC 2016-09-27 11:32:22
    Text
    ID : 6
    Format : Timed Text
    Muxing mode : sbtl
    Codec ID : tx3g
    Duration : 1h 43mn
    Bit rate mode : Variable
    Bit rate : 61 bps
    Stream size : 45.9 KiB (0%)
    Title : English full
    Language : English
    Encoded date : UTC 2016-09-27 11:31:42
    Tagged date : UTC 2016-09-27 11:32:21
    Menu #1
    00:00:00.000 : Chapter 1
    00:05:47.264 : Chapter 2
    00:09:21.936 : Chapter 3
    00:17:15.451 : Chapter 4
    00:22:48.909 : Chapter 5
    00:28:43.263 : Chapter 6
    00:35:58.573 : Chapter 7
    00:41:50.258 : Chapter 8
    00:47:02.319 : Chapter 9
    00:53:30.457 : Chapter 10
    00:57:31.615 : Chapter 11
    01:02:20.320 : Chapter 12
    01:10:43.698 : Chapter 13
    01:17:32.815 : Chapter 14
    01:22:16.849 : Chapter 15
    01:27:02.592 : Chapter 16
    01:32:12.902 : Chapter 17
    01:36:17.563 : Chapter 18
    01:41:35.464 : Chapter 19
    01:43:36.836 : Chapter 20
    Menu #2
    ID : 7
    Codec ID : text
    Duration : 1h 48mn
    Language : English
    Encoded date : UTC 2016-09-27 11:32:22
    Tagged date : UTC 2016-09-27 11:32:22
    00:00:00.000 : Chapter 1
    00:05:47.264 : Chapter 2
    00:09:21.936 : Chapter 3
    00:17:15.451 : Chapter 4
    00:22:48.909 : Chapter 5
    00:28:43.263 : Chapter 6
    00:35:58.573 : Chapter 7
    00:41:50.258 : Chapter 8
    00:47:02.319 : Chapter 9
    00:53:30.457 : Chapter 10
    00:57:31.615 : Chapter 11
    01:02:20.320 : Chapter 12
    01:10:43.698 : Chapter 13
    01:17:32.815 : Chapter 14
    01:22:16.849 : Chapter 15
    01:27:02.592 : Chapter 16
    01:32:12.902 : Chapter 17
    01:36:17.563 : Chapter 18
    01:41:35.464 : Chapter 19
    01:43:36.836 : Chapter 20
    Bit rate mode : VBR

    x264 лог

    x264 [info]: frame I:1638  Avg QP:16.56  size: 89842
    x264 [info]: frame P:57599 Avg QP:18.58  size: 29077
    x264 [info]: frame B:97268 Avg QP:19.99  size: 10607
    x264 [info]: consecutive B-frames:  4.6% 23.8% 41.1% 30.5%
    x264 [info]: mb I  I16..4: 11.3% 61.6% 27.1%
    x264 [info]: mb P  I16..4:  2.3%  6.6%  2.5%  P16..4: 46.4% 22.6% 10.2%  0.0%  0.0%    skip: 9.5%
    x264 [info]: mb B  I16..4:  0.1%  0.9%  0.3%  B16..8: 48.7% 10.8%  1.6%  direct: 4.8%  skip:32.8%  L0:42.3% L1:52.4% BI: 5.3%
    x264 [info]: 8x8 transform intra:60.3% inter:49.5%
    x264 [info]: coded y,uvDC,uvAC intra: 80.0% 81.6% 62.4% inter: 26.4% 26.1% 11.8%
    x264 [info]: i16 v,h,dc,p: 52% 13%  6% 29%
    x264 [info]: i8 v,h,dc,ddl,ddr,vr,hd,vl,hu: 11%  6%  5% 12% 16% 15% 14% 11% 10%
    x264 [info]: i4 v,h,dc,ddl,ddr,vr,hd,vl,hu: 11%  7%  3% 13% 17% 16% 14% 11%  8%
    x264 [info]: i8c dc,h,v,p: 54% 15% 18% 13%
    x264 [info]: ref P L0: 72.2% 16.8% 10.9%
    x264 [info]: ref B L0: 80.7% 19.3%
    x264 [info]: kb/s:3497.37

    Скриншоты


    -

    Релиз подготовлен для просмотра на Apple TV, iPad, iPhone, iPod Touch.
    Для просмотра данного релиза на компьютере с ОС Windows рекомендуется использовать VLC media player
    Скачать .torrent

    Скачать торрент-файл бесплатно и на максимальной скорости!

    Как скачивать? · Что такое торрент? · Рейтинг и ограничения

    !ВНИМАНИЕ!
    Сайт не распространяет и не хранит электронные версии произведений, а занимается лишь лишь предоставлением доступа к создаваемому пользователями каталогу ссылок на торрент-файлы, которые содержат только списки хеш-сумм, убедительная просьба с жалобами обращаться напрямую к пользователю. Файлы для обмена на трекере предоставлены пользователями сайта, и администрация не несёт ответственности за их содержание. Просьба не заливать файлы, защищенные авторскими правами, а также файлы нелегального содержания!


    _________________
    [Профиль] [ЛС]
    Показать сообщения:    
    Ответить на тему

    Текущее время: Сегодня, в 10:00

    Часовой пояс: GMT + 2



    Вы не можете начинать темы
    Вы не можете отвечать на сообщения
    Вы не можете редактировать свои сообщения
    Вы не можете удалять свои сообщения
    Вы не можете голосовать в опросах
    Вы не можете прикреплять файлы к сообщениям
    Вы не можете скачивать файлы