BitTorrentTracker PerecTracker.org
BitTorrentTracker PerecTracker.org
    
Регистрация  ·  Вход
 
 · 
Забыли пароль?

  • [ATV3] Судная ночь 3 / The Purge: Election Year (Джеймс ДеМонако / James DeMonaco ) [2016, США, Франция , Ужасы, фантастика, боевик, триллер, BDRip, HD (1080p)] DUB + Original + sub (eng)

    Ответить на тему
     
    Автор Сообщение

    rechyn

    Создавать темы 27-Сен-2016 00:00

           

    [Цитировать]

    Судная ночь 3 / The Purge: Election Year
    «Один раз в году все преступления законны»
    5.629 / 10 6.10 / 10
    -Год выпуска: 2016
    Страна: США, Франция
    Жанр: Ужасы, фантастика, боевик, триллер
    Продолжительность: 01:48:47
    Перевод: Дублированный (iTunes)
    Оригинальная аудиодорожка: Есть
    Cубтитры: Английские
    Режиссёр: Джеймс ДеМонако
    Сценарий: Джеймс ДеМонако
    Продюсер: Майкл Бэй, Джейсон Блум, Филлип Дейв
    Оператор: Жак Жуффре
    Композитор: Нэйтан Уайтхед
    Художник: Шэрон Ломофски, Дэвид Бланкеншип, Лиз Вастола
    Монтаж: Тодд Е. Миллер
    В ролях: Фрэнк Грилло, Элизабет Митчелл, Майкелти Уильямсон, Джозеф Джулиан Сория, Бетти Гэбриел, Терри Серпико, Эдвин Ходж, Кайл Сикор, Бэрри Нолан, Лиза Колон-Зайас
    Бюджет: $10 000 000
    Сборы в США: $79 042 440
    Сборы в мире: + $36 300 000 = $115 342 440
    Сборы в России: $824 491
    Мировая премьера: 29 июня 2016
    Премьера (РФ): 28 июля 2016, «UPI»
    Описание: Добро пожаловать в идеальное будущее, в котором Судная ночь превратилась в международный тренд. Туристы со всего мира прибывают в аэропорты Америки: ведь всего лишь раз в году здесь позволено все, главное — дожить до рассвета.-Качество исходника: BDRemux (HDCLub)
    Качество: BDRip
    Тип: HD (1080p)
    Контейнер: M4V
    Видео: H.264, 1920x800, 2.40:1, 8 000 Kbps, 23.976 fps
    Аудио 1: Русский/Дублированный (iTunes), AAC / 2.0 / 160 Kbps / 48.0 KHz
    Аудио 2: Английский/Оригинальная дорожка , AAC / 2.0 / 160 Kbps / 48.0 KHz
    Аудио 3: Русский/Дублированный (iTunes), AC-3 / 5.1 / 384 Kbps / 48.0 KHz
    Аудио 4: Английский/Оригинальная дорожка , AC-3 / 5.1 / 640 Kbps / 48.0 KHz
    Субтитры: Английские полные
    -

    iTunes Meta Tags

    Sort Name: Purge: Election Year
    XID: Apple:vendor_id:2016-843907
    contentID: 1125555618
    Copyright: © 2016 Universal Studios. All Rights Reserved.
    Screenwriters: Джеймс ДеМонако
    Producers: Майкл Бэй, Джейсон Блум, Филлип Дейв
    Director: Джеймс ДеМонако
    Cast: Фрэнк Грилло, Элизабет Митчелл, Майкелти Уильямсон, Джозеф Джулиан Сория, Бетти Гэбриел, Терри Серпико, Эдвин Ходж, Кайл Сикор, Бэрри Нолан, Лиза Колон-Зайас
    Studio: Universal Pictures
    Rating Annotation: Rated R for disturbing bloody violence and strong language.
    Rating: 5
    Long Description: Добро пожаловать в идеальное будущее, в котором Судная ночь превратилась в международный тренд. Туристы со всего мира прибывают в аэропорты Америки: ведь всего лишь раз в году здесь позволено все, главное - дожить до рассвета.
    Description: Добро пожаловать в идеальное будущее, в котором Судная ночь превратилась в международный тренд. Туристы со всего мира прибывают в аэропорты Америки: ведь всего лишь раз в году здесь позволено все, главное - дожить до рассвета.
    Release Date: 2016-06-29T08:00:00Z
    Genre: Horror
    Artist: James DeMonaco
    Name: The Purge: Election Year

    MediaInfo

    General
    Complete name : /Users/imac/HandBrake/The Purge- Election Year (1080p HD).m4v
    Format : MPEG-4
    Codec ID : M4V
    File size : 7.10 GiB
    Duration : 1h 48mn
    Overall bit rate mode : Variable
    Overall bit rate : 9 342 Kbps
    Movie name : The Purge: Election Year
    Performer : James DeMonaco
    Director : Джеймс ДеМонако
    Actor : Фрэнк Грилло / Элизабет Митчелл / Майкелти Уильямсон / Джозеф Джулиан Сория / Бетти Гэбриел / Терри Серпико / Эдвин Ходж / Кайл Сикор / Бэрри Нолан / Лиза Колон-Зайас
    Screenplay by : Джеймс ДеМонако
    Producer : Майкл Бэй / Джейсон Блум / Филлип Дейв
    Production studio : Universal Pictures
    Genre : Horror
    ContentType : Short Film
    Description : Добро пожаловать в идеальное будущее, в котором Судная ночь превратилась в международный тренд. Туристы со всего мира прибывают в аэропорты Америки: ведь всего лишь раз в году здесь позволено все, главное - дожить до рассвета.
    Recorded date : UTC 2016-06-29 08:00:00
    Encoded date : UTC 2016-09-26 17:35:16
    Tagged date : UTC 2016-09-26 17:37:37
    Copyright : © 2016 Universal Studios. All Rights Reserved.
    Cover : Yes
    Rating : None
    Title/Sort : Purge: Election Year
    LongDescription : Добро пожаловать в идеальное будущее, в котором Судная ночь превратилась в международный тренд. Туристы со всего мира прибывают в аэропорты Америки: ведь всего лишь раз в году здесь позволено все, главное - дожить до рассвета.
    AppleStoreCatalogID : 1125555618
    Vendor : Apple:vendor_id:2016-843907
    ContentRating : mpaa|R|400|Rated R for disturbing bloody violence and strong language.
    Video #1
    ID : 1
    Format : AVC
    Format/Info : Advanced Video Codec
    Format profile : High@L4
    Format settings, CABAC : Yes
    Format settings, ReFrames : 4 frames
    Codec ID : avc1
    Codec ID/Info : Advanced Video Coding
    Duration : 1h 48mn
    Source duration : 1h 48mn
    Bit rate : 8 000 Kbps
    Width : 1 920 pixels
    Height : 800 pixels
    Display aspect ratio : 2.40:1
    Frame rate mode : Variable
    Frame rate : 23.976 fps
    Minimum frame rate : 23.974 fps
    Maximum frame rate : 23.981 fps
    Color space : YUV
    Chroma subsampling : 4:2:0
    Bit depth : 8 bits
    Scan type : Progressive
    Bits/(Pixel*Frame) : 0.217
    Stream size : 6.08 GiB (86%)
    Source stream size : 6.08 GiB (86%)
    Title : Main Program
    Writing library : x264 core 142 r2479 dd79a61
    Encoding settings : cabac=1 / ref=4 / deblock=1:-2:-2 / analyse=0x3:0x133 / me=umh / subme=10 / psy=1 / psy_rd=1.00:0.15 / mixed_ref=1 / me_range=32 / chroma_me=1 / trellis=2 / 8x8dct=1 / cqm=0 / deadzone=21,11 / fast_pskip=0 / chroma_qp_offset=-3 / threads=36 / lookahead_threads=6 / sliced_threads=0 / nr=0 / decimate=0 / interlaced=0 / bluray_compat=0 / constrained_intra=0 / bframes=16 / b_pyramid=2 / b_adapt=2 / b_bias=0 / direct=3 / weightb=1 / open_gop=0 / weightp=2 / keyint=240 / keyint_min=24 / scenecut=40 / intra_refresh=0 / rc_lookahead=60 / rc=2pass / mbtree=1 / bitrate=8000 / ratetol=1.0 / qcomp=0.70 / qpmin=0 / qpmax=69 / qpstep=4 / cplxblur=20.0 / qblur=0.5 / vbv_maxrate=25000 / vbv_bufsize=25000 / nal_hrd=none / filler=0 / ip_ratio=1.40 / aq=1:1.00
    Language : English
    Encoded date : UTC 2016-09-26 17:35:16
    Tagged date : UTC 2016-09-26 17:35:31
    Color range : Limited
    Color primaries : BT.709
    Transfer characteristics : BT.709
    Matrix coefficients : BT.709
    Video #2
    ID : 8
    Format : JPEG
    Codec ID : jpeg
    Duration : 1h 48mn
    Bit rate mode : Variable
    Bit rate : 620 bps
    Width : 640 pixels
    Height : 266 pixels
    Display aspect ratio : 2.40:1
    Frame rate mode : Variable
    Frame rate : 0.003 fps
    Minimum frame rate : 0.002 fps
    Maximum frame rate : 0.008 fps
    Color space : YUV
    Chroma subsampling : 4:2:0
    Bit depth : 8 bits
    Compression mode : Lossy
    Bits/(Pixel*Frame) : 1.214
    Stream size : 504 KiB (0%)
    Title : Chaptere Images
    Language : English
    Encoded date : UTC 2016-09-26 17:35:39
    Tagged date : UTC 2016-09-26 17:35:39
    Audio #1
    ID : 2
    Format : AAC
    Format/Info : Advanced Audio Codec
    Format profile : LC
    Codec ID : 40
    Duration : 1h 48mn
    Bit rate mode : Variable
    Bit rate : 156 Kbps
    Maximum bit rate : 255 Kbps
    Channel(s) : 2 channels
    Channel positions : Front: L R
    Sampling rate : 48.0 KHz
    Compression mode : Lossy
    Stream size : 121 MiB (2%)
    Title : Russian Stereo
    Language : Russian
    Encoded date : UTC 2016-09-26 17:35:16
    Tagged date : UTC 2016-09-26 17:35:32
    Audio #2
    ID : 3
    Format : AAC
    Format/Info : Advanced Audio Codec
    Format profile : LC
    Codec ID : 40
    Duration : 1h 48mn
    Bit rate mode : Variable
    Bit rate : 157 Kbps
    Maximum bit rate : 263 Kbps
    Channel(s) : 2 channels
    Channel positions : Front: L R
    Sampling rate : 48.0 KHz
    Compression mode : Lossy
    Stream size : 122 MiB (2%)
    Title : English Stereo
    Language : English
    Encoded date : UTC 2016-09-26 17:35:16
    Tagged date : UTC 2016-09-26 17:35:32
    Audio #3
    ID : 4
    Format : AC-3
    Format/Info : Audio Coding 3
    Mode extension : CM (complete main)
    Format settings, Endianness : Big
    Codec ID : ac-3
    Duration : 1h 48mn
    Bit rate mode : Constant
    Bit rate : 384 Kbps
    Channel(s) : 6 channels
    Channel positions : Front: L C R, Side: L R, LFE
    Sampling rate : 48.0 KHz
    Bit depth : 16 bits
    Compression mode : Lossy
    Stream size : 299 MiB (4%)
    Title : Russian DD 5.1
    Language : Russian
    Encoded date : UTC 2016-09-26 17:35:16
    Tagged date : UTC 2016-09-26 17:35:23
    Audio #4
    ID : 5
    Format : AC-3
    Format/Info : Audio Coding 3
    Mode extension : CM (complete main)
    Format settings, Endianness : Big
    Codec ID : ac-3
    Duration : 1h 48mn
    Bit rate mode : Constant
    Bit rate : 640 Kbps
    Channel(s) : 6 channels
    Channel positions : Front: L C R, Side: L R, LFE
    Sampling rate : 48.0 KHz
    Bit depth : 16 bits
    Compression mode : Lossy
    Stream size : 498 MiB (7%)
    Title : English DD 5.1
    Language : English
    Encoded date : UTC 2016-09-26 17:35:16
    Tagged date : UTC 2016-09-26 17:35:23
    Text
    ID : 6
    Format : Timed Text
    Muxing mode : sbtl
    Codec ID : tx3g
    Duration : 1h 43mn
    Bit rate mode : Variable
    Bit rate : 61 bps
    Stream size : 46.0 KiB (0%)
    Title : English full
    Language : English
    Encoded date : UTC 2016-09-26 17:35:16
    Tagged date : UTC 2016-09-26 17:35:16
    Menu #1
    00:00:00.000 : Chapter 1
    00:05:47.264 : Chapter 2
    00:09:21.936 : Chapter 3
    00:17:15.451 : Chapter 4
    00:22:48.909 : Chapter 5
    00:28:43.263 : Chapter 6
    00:35:58.573 : Chapter 7
    00:41:50.258 : Chapter 8
    00:47:02.319 : Chapter 9
    00:53:30.457 : Chapter 10
    00:57:31.615 : Chapter 11
    01:02:20.320 : Chapter 12
    01:10:43.698 : Chapter 13
    01:17:32.815 : Chapter 14
    01:22:16.849 : Chapter 15
    01:27:02.592 : Chapter 16
    01:32:12.902 : Chapter 17
    01:36:17.563 : Chapter 18
    01:41:35.464 : Chapter 19
    01:43:36.836 : Chapter 20
    Menu #2
    ID : 7
    Codec ID : text
    Duration : 1h 48mn
    Language : English
    Encoded date : UTC 2016-09-26 17:35:32
    Tagged date : UTC 2016-09-26 17:35:32
    00:00:00.000 : Chapter 1
    00:05:47.264 : Chapter 2
    00:09:21.936 : Chapter 3
    00:17:15.451 : Chapter 4
    00:22:48.909 : Chapter 5
    00:28:43.263 : Chapter 6
    00:35:58.573 : Chapter 7
    00:41:50.258 : Chapter 8
    00:47:02.319 : Chapter 9
    00:53:30.457 : Chapter 10
    00:57:31.615 : Chapter 11
    01:02:20.320 : Chapter 12
    01:10:43.698 : Chapter 13
    01:17:32.815 : Chapter 14
    01:22:16.849 : Chapter 15
    01:27:02.592 : Chapter 16
    01:32:12.902 : Chapter 17
    01:36:17.563 : Chapter 18
    01:41:35.464 : Chapter 19
    01:43:36.836 : Chapter 20
    Bit rate mode : VBR

    x264 лог

    x264 [info]: frame I:869   Avg QP:18.27  size:152810
    x264 [info]: frame P:36645 Avg QP:21.54  size: 56662
    x264 [info]: frame B:118991 Avg QP:22.10  size: 36260
    x264 [info]: consecutive B-frames:  2.8%  4.7% 14.3% 10.7% 14.5% 46.1%  3.5%  0.5%  0.5%  0.5%  0.3%  0.4%  0.2%  0.1%  0.2%  0.3%  0.5%
    x264 [info]: mb I  I16..4: 32.9% 56.8% 10.3%
    x264 [info]: mb P  I16..4:  6.7% 13.8%  1.2%  P16..4: 47.3% 12.8%  8.5%  0.1%  0.0%    skip: 9.6%
    x264 [info]: mb B  I16..4:  2.5%  1.7%  0.1%  B16..8: 43.9%  6.7%  1.6%  direct:10.3%  skip:33.1%  L0:45.1% L1:48.9% BI: 6.0%
    x264 [info]: 8x8 transform intra:54.3% inter:54.3%
    x264 [info]: direct mvs  spatial:98.0% temporal:2.0%
    x264 [info]: coded y,uvDC,uvAC intra: 87.5% 83.0% 61.1% inter: 34.3% 35.5% 10.1%
    x264 [info]: i16 v,h,dc,p: 11%  8% 49% 32%
    x264 [info]: i8 v,h,dc,ddl,ddr,vr,hd,vl,hu:  8%  6% 11% 10% 14% 13% 13% 11% 12%
    x264 [info]: i4 v,h,dc,ddl,ddr,vr,hd,vl,hu:  8%  7%  7% 10% 15% 14% 14% 11% 13%
    x264 [info]: i8c dc,h,v,p: 48% 20% 16% 16%
    x264 [info]: Weighted P-Frames: Y:3.3% UV:2.0%
    x264 [info]: ref P L0: 51.7% 10.0% 25.1% 11.2%  1.9%  0.1%
    x264 [info]: ref B L0: 84.4% 12.9%  2.7%
    x264 [info]: ref B L1: 91.0%  9.0%
    x264 [info]: kb/s:7995.36

    Скриншоты


    -

    Релиз подготовлен для просмотра на Apple TV, iPad, iPhone, iPod Touch.
    Для просмотра данного релиза на компьютере с ОС Windows рекомендуется использовать VLC media player
    Скачать .torrent

    Скачать торрент-файл бесплатно и на максимальной скорости!

    Как скачивать? · Что такое торрент? · Рейтинг и ограничения

    !ВНИМАНИЕ!
    Сайт не распространяет и не хранит электронные версии произведений, а занимается лишь лишь предоставлением доступа к создаваемому пользователями каталогу ссылок на торрент-файлы, которые содержат только списки хеш-сумм, убедительная просьба с жалобами обращаться напрямую к пользователю. Файлы для обмена на трекере предоставлены пользователями сайта, и администрация не несёт ответственности за их содержание. Просьба не заливать файлы, защищенные авторскими правами, а также файлы нелегального содержания!


    _________________
    [Профиль] [ЛС]
    Показать сообщения:    
    Ответить на тему

    Текущее время: Сегодня, в 04:21

    Часовой пояс: GMT + 2



    Вы не можете начинать темы
    Вы не можете отвечать на сообщения
    Вы не можете редактировать свои сообщения
    Вы не можете удалять свои сообщения
    Вы не можете голосовать в опросах
    Вы не можете прикреплять файлы к сообщениям
    Вы не можете скачивать файлы