BitTorrentTracker PerecTracker.org
BitTorrentTracker PerecTracker.org
    
Регистрация  ·  Вход
 
 · 
Забыли пароль?

  • Весна и зима / Lui au printemps, elle en hiver (Катрин Клейн / Catherine Klein) [2015, Франция, комедия, драма, DVB] Original (Fre) + Sub (Rus, Eng, Fre, Deu)

    Ответить на тему
     
    Автор Сообщение

    Light

    Создавать темы 27-Сен-2016 00:00

           

    [Цитировать]

    Весна и зима
    Lui au printemps, elle en hiver-Страна: Франция
    Жанр: комедия, драма
    Год выпуска: 2015
    Продолжительность: 01:28:45
    Перевод: Субтитры (перевод А.Вижье, Éclair Media)
    Cубтитры: русские, английские, французские, немецкие, нидерландские
    Оригинальная аудиодорожка: французский
    Режиссер: Катрин Клейн / Catherine KleinВ ролях: Людмила Микаэль / Ludmila Mikaël (Jeanne Dorwal), Эрик Каравака / Éric Caravaca (Pascal), Магали Вок / Magali Woch (Sophie), Жан-Ив Шатле / Jean-Yves Chatelais (Pierre), Серж Аведикян / Serge Avédikian (Danou), Янник Ландрейн / Yannik Landrein (Louis), Брижитт Си / Brigitte Sy (Hélène)
    Описание: Жанне Дорваль, одному из старших менеджеров фармацевтической компании, руководство объявило о сокращении и досрочном отправлении на пенсию. Это событие могло бы сильно омрачить жизнь этой энергичной и независимой женщины, если бы не случайная встреча с молодым мужчиной и начавшиеся романтические отношения. Пускай злые языки гворят: "Он красив. Как она может еще ему нравиться? Он переживает весну, а она - зиму", - Жанне снова удастся подтвердить статус свободной и чувственной женщины.
    Доп. информация: Hot Bird (13.0°E) TV5MONDE Europe DVB-S
    Участник Festival de la fiction TV de la Rochelle 2015.

    Качество видео: DVB
    Формат видео: MKV
    Видео: MPEG Video 2, 720x576@1024x576 (16:9), 25 fps, ~2893 kbps avg, 0.279 bit/pixel
    Аудио: MPEG Audio 2, 2 ch, 48 kHz, 192 kbps - французский
    Формат субтитров: softsub (SRT)

    Пример субтитров

    100:00:09,768 --> 00:00:12,768Быстрее, она идет!
    200:00:13,485 --> 00:00:16,485Быстрее!
    300:00:22,244 --> 00:00:24,167-Доброе утро.-3дравствуйте.
    400:00:24,167 --> 00:00:25,573Я опоздала?
    500:00:25,573 --> 00:00:28,093Нет, похоже,я даже раньше.
    600:00:28,093 --> 00:00:30,565Ну что...Все в сборе?
    700:00:30,565 --> 00:00:33,372Хотя нет...Кажется...
    800:00:33,372 --> 00:00:34,686А вот и Филипп.
    900:00:34,686 --> 00:00:37,686-Доброе утро, Жанна.-Доброе.
    1000:00:38,329 --> 00:00:41,093Можно узнать,чему вы так радуетесь?
    1100:00:41,093 --> 00:00:43,603Рады видетьлюбимую начальницу.
    1200:00:43,603 --> 00:00:45,888Это хорошо.Когда увидите цифры
    1300:00:45,888 --> 00:00:48,888по "Декоприлу", будет не до радости.Придется...
    1400:00:49,490 --> 00:00:50,801проявить больше...
    1500:00:50,801 --> 00:00:53,801Настойчивости и энергичности!
    1600:00:53,809 --> 00:00:55,131Тебя вызывает Дану.
    1700:00:55,131 --> 00:00:57,489-Прямо сейчас?-Это срочно.
    1800:00:57,489 --> 00:01:00,162-Похоже, что-то серьезное.-Хорошо, иду.
    1900:01:00,162 --> 00:01:03,162Начинайте без меня.
    2000:01:09,736 --> 00:01:12,736ВЕСНА И ЗИМА

    MediaInfo

    GeneralUnique ID : 223319342228023818146935997421616831192 (0xA801BDA769EBF647B2DF40588B6F1AD8)Complete name : [apreder]Lui_au_printemps_elle_en_hiver(2015)DVB.mkvFormat : MatroskaFormat version : Version 2File size : 1.95 GiBDuration : 1 h 28 minOverall bit rate : 3 147 kb/sMovie name : Lui au printemps, elle en hiverReleased date : 2015-10-13Encoded date : UTC 2016-09-25 15:14:59Writing application : mkvmerge v9.4.2 ('So High') 64bitWriting library : libebml v1.3.4 + libmatroska v1.4.5Cover : YesAttachments : cover.png / small_cover.pngACTOR : Ludmila Mikaлl, Йric CaravacaDIRECTOR : Catherine KleinGENRE : Comedy, DramaIMDB : tt4680570KEYWORDS : perectracker.orgLAW_RATING : 16+
    VideoID : 1Format : MPEG VideoFormat version : Version 2Format profile : Main@MainFormat settings, BVOP : YesFormat settings, Matrix : CustomFormat settings, GOP : M=4, N=12Format settings, picture structure : FrameCodec ID : V_MPEG2Codec ID/Info : MPEG 1 or 2 VideoDuration : 1 h 28 minBit rate : 2 893 kb/sMaximum bit rate : 3 200 kb/sWidth : 720 pixelsHeight : 576 pixelsDisplay aspect ratio : 16:9Frame rate mode : ConstantFrame rate : 25.000 FPSStandard : PALColor space : YUVChroma subsampling : 4:2:0Bit depth : 8 bitsScan type : InterlacedScan order : Top Field FirstCompression mode : LossyBits/(Pixel*Frame) : 0.279Stream size : 1.79 GiB (92%)Default : YesForced : No
    AudioID : 2Format : MPEG AudioFormat version : Version 1Format profile : Layer 2Mode : Joint stereoMode extension : Intensity Stereo + MS StereoCodec ID : A_MPEG/L2Codec ID/Hint : MP2Duration : 1 h 28 minBit rate mode : ConstantBit rate : 192 kb/sChannel(s) : 2 channelsSampling rate : 48.0 kHzCompression mode : LossyStream size : 122 MiB (6%)Language : FrenchDefault : YesForced : No
    Text #1ID : 3Format : UTF-8Codec ID : S_TEXT/UTF8Codec ID/Info : UTF-8 Plain TextLanguage : RussianDefault : NoForced : No
    Text #2ID : 4Format : UTF-8Codec ID : S_TEXT/UTF8Codec ID/Info : UTF-8 Plain TextLanguage : EnglishDefault : NoForced : No
    Text #3ID : 5Format : UTF-8Codec ID : S_TEXT/UTF8Codec ID/Info : UTF-8 Plain TextLanguage : FrenchDefault : NoForced : No
    Text #4ID : 6Format : UTF-8Codec ID : S_TEXT/UTF8Codec ID/Info : UTF-8 Plain TextLanguage : GermanDefault : NoForced : No
    Text #5ID : 7Format : UTF-8Codec ID : S_TEXT/UTF8Codec ID/Info : UTF-8 Plain TextLanguage : DutchDefault : NoForced : No

    Скриншот c названием фильма

    Скриншоты

    Резервные скриншоты


    -
    Скачать .torrent

    Скачать торрент-файл бесплатно и на максимальной скорости!

    Как скачивать? · Что такое торрент? · Рейтинг и ограничения

    !ВНИМАНИЕ!
    Сайт не распространяет и не хранит электронные версии произведений, а занимается лишь лишь предоставлением доступа к создаваемому пользователями каталогу ссылок на торрент-файлы, которые содержат только списки хеш-сумм, убедительная просьба с жалобами обращаться напрямую к пользователю. Файлы для обмена на трекере предоставлены пользователями сайта, и администрация не несёт ответственности за их содержание. Просьба не заливать файлы, защищенные авторскими правами, а также файлы нелегального содержания!


    _________________
    [Профиль] [ЛС]
    Показать сообщения:    
    Ответить на тему

    Текущее время: Сегодня, в 12:59

    Часовой пояс: GMT + 2



    Вы не можете начинать темы
    Вы не можете отвечать на сообщения
    Вы не можете редактировать свои сообщения
    Вы не можете удалять свои сообщения
    Вы не можете голосовать в опросах
    Вы не можете прикреплять файлы к сообщениям
    Вы не можете скачивать файлы