BitTorrentTracker PerecTracker.org
BitTorrentTracker PerecTracker.org
    
Регистрация  ·  Вход
 
 · 
Забыли пароль?

  • Шелли снова в деле / Wiener Dog Internationals (Кеван Петерсон / Kevan Peterson) [2015, США, Семейный, комедия, детский, DVDRip] MVO

    Ответить на тему
     
    Автор Сообщение

    Light

    Создавать темы 27-Сен-2016 00:00

           

    [Цитировать]

    Шелли снова в деле / Wiener Dog Internationals
    Страна: США
    Жанр: Семейный, комедия
    Год выпуска: 2015
    Продолжительность: 01:31:55
    Перевод: Любительский (многоголосый закадровый)
    Cубтитры: нет
    Режиссер: Кеван Петерсон / Kevan Peterson
    В ролях: Морган Фэйрчайлд, Джейсон Лондон, Брайан Бэтт, Джулиан Федер, Кэйтлин Кармайкл, Остин Андерсон, Корсика Уилсон, Синти Ву, Села Джой, Эмми Перри
    Описание: Это продолжение фильма "Wiener Dog nationals" 2013 года (его с переводом пока нет).
    Такса Шелли в первом фильме стала победителем национальных собачьих бегов. Это позволило ей стать кандидатом на участие в международных соревнованиях. Но глава семейства Джексонов в период проведения международных соревнований оказался занят и запретил участие в соревнованиях. Но дети использовали мелкую хитрость и попали на соревнования. Там им пришлось не только участвовать в соревнованиях, но и бороться с авантюристкой, которая хотела использовать клонов их таксы в соревноаниях. В итоге всё закончилось хорошо.
    Доп. информация: без рекламы (в интернете есть этот фильм с жуткой рекламой)
    Сэмпл: http://multi-up.com/1119351
    Качество видео: DVDRip
    Формат видео: AVI
    Видео: XviD, 999 Кбит/сек, 720 х 400 пикс, 25,0 кадр/сек, 0.139 Бит/(Пиксели*Кадры)
    Аудио: MP3, 48,0 КГц, 128 Кбит/сек, 2 канала

    MediaInfo

    Общее
    Полное имя : C:\фильмы\02 возможно для раздачи\Шелли снова в деле 2015г (без рекламы)\Шелли снова в деле (2015г).avi
    Формат : AVI
    Формат/Информация : Audio Video Interleave
    Размер файла : 747 Мбайт
    Продолжительность : 1 ч. 31 м.
    Общий поток : 1137 Кбит/сек
    Видео
    Идентификатор : 0
    Формат : MPEG-4 Visual
    Профиль формата : Advanced Simple@L4
    Параметр BVOP формата : Нет
    Параметр QPel формата : Нет
    Параметр GMC формата : Без точки перехода
    Параметр матрицы формата : Default (H.263)
    Идентификатор кодека : XVID
    Идентификатор кодека/Подсказка : XviD
    Продолжительность : 1 ч. 31 м.
    Битрейт : 999 Кбит/сек
    Ширина : 720 пикселей
    Высота : 400 пикселей
    Соотношение сторон : 16:9
    Частота кадров : 25,000 кадров/сек
    Цветовое пространство : YUV
    Субдискретизация насыщенности : 4:2:0
    Битовая глубина : 8 бит
    Тип развёртки : Прогрессивная
    Метод сжатия : С потерями
    Бит/(Пиксели*Кадры) : 0.139
    Размер потока : 657 Мбайт (88%)
    Библиотека кодирования : Lavc53.42.0
    Аудио
    Идентификатор : 1
    Формат : MPEG Audio
    Версия формата : Version 1
    Профиль формата : Layer 3
    Идентификатор кодека : 55
    Идентификатор кодека/Подсказка : MP3
    Продолжительность : 1 ч. 31 м.
    Продолжительность оригинала : 1 ч. 31 м.
    Вид битрейта : Постоянный
    Битрейт : 128 Кбит/сек
    Каналы : 2 канала
    Частота : 48,0 КГц
    Метод сжатия : С потерями
    Размер потока : 84,2 Мбайт (11%)
    Выравнивание : Соединение по промежуткам
    Продолжительность промежутка : 40 мс. (1,00 видеокадр)

    Скриншот c названием фильма

    Скриншоты


    предыдущие или аналогичные раздачи

    пока нет

    источник рипа

    найдено в интернете
    Скачать .torrent

    Скачать торрент-файл бесплатно и на максимальной скорости!

    Как скачивать? · Что такое торрент? · Рейтинг и ограничения

    !ВНИМАНИЕ!
    Сайт не распространяет и не хранит электронные версии произведений, а занимается лишь лишь предоставлением доступа к создаваемому пользователями каталогу ссылок на торрент-файлы, которые содержат только списки хеш-сумм, убедительная просьба с жалобами обращаться напрямую к пользователю. Файлы для обмена на трекере предоставлены пользователями сайта, и администрация не несёт ответственности за их содержание. Просьба не заливать файлы, защищенные авторскими правами, а также файлы нелегального содержания!


    _________________
    [Профиль] [ЛС]
    Показать сообщения:    
    Ответить на тему

    Текущее время: Сегодня, в 14:41

    Часовой пояс: GMT + 2



    Вы не можете начинать темы
    Вы не можете отвечать на сообщения
    Вы не можете редактировать свои сообщения
    Вы не можете удалять свои сообщения
    Вы не можете голосовать в опросах
    Вы не можете прикреплять файлы к сообщениям
    Вы не можете скачивать файлы