BitTorrentTracker PerecTracker.org
BitTorrentTracker PerecTracker.org
    
Регистрация  ·  Вход
 
 · 
Забыли пароль?

  • Всем скорбящим радость / Серии: 1-4 из 4 (Владимир Фатьянов) [2013, драма, SATRip]

    Ответить на тему
     
    Автор Сообщение

    rechyn

    Создавать темы 26-Сен-2016 08:53

           

    [Цитировать]

    Всем скорбящим радость
    Год выпуска: 2013
    Производство: Студия "Единственный дубль" (кинокомпания "Телефильм"), по заказу правительства Москвы
    Жанр: драма
    Продолжительность: 00:45:00
    Субтитры: нет
    Режиссёр: Владимир Фатьянов
    В ролях: Павел Деревянко, Ирина Пегова, Виктор Маркин (II), Галина Бокашевская, Диана Дезмари, Николай Добрынин, Эрнст Романов, Алексей Весёлкин, Владимир Вишневский, Виктор Павлюченков, Николай Григорьев, Ирина Козеева, Наталья Бортникова
    Описание: Непризнанный гений… как нам всем это хорошо знакомо… Да ещё в Российской глубинке…Семён Охапкин, как раз там и живёт, в Российской глубинке… живёт и пишет примитивные картины… одну за другой… по большому счёту, не отдавая себе отчета, зачём он это делает… он просто не может не писать… такова его сущность… пишет и пишет увлечённый неодолимой жаждой творчества. Жена Семёна, Люба… терпит его и несёт на себе тяжкое бремя провинциального быта. Она ждёт и надеется на лучшее…Окружающие к таким как Семён не могут быть равнодушны. Он, в силу своей неординарности, привлекает внимание окружающих его людей. Одни - восхищаются им, другие - ненавидят, третьи - завидуют, четвёртые - сочувствуют, пятые - пользуются его доверчивостью и непрактичностью и т.д. В силу обстоятельств Семён сталкивается и с теми и с другими и с третьими…
    Так случилось, что из деревенской церкви была украдена икона "Всем скорбящим радость" и церковная утварь… подозрение пало на Семёна, а поскольку дело было перед выборами, местной власти и милиции нужен был "козёл отпущения"… тем более, что основание для подозрения нашлось… соседка Райка видела, как Семён, как раз после кражи, получал за что-то деньги от заезжих туристов… А может быть… им-то он и продал икону?…

    Релиз группа
    Все раздачи сериала: Всем скорбящим радость

    Качество: SATRip
    Формат: AVI
    Видео кодек: XviD
    Аудио кодек: AC3
    Видео: MPEG-4 Visual, 720х400, 25 кадр/с, ~1700 Кбит/сек, 0,238 bit/pixel
    Аудио: АС3, 48,0 kHz, 2 ch, 192 Кбит/с

    MI

    Общее
    Полное имя                               : C:\Users\Vytautas\Downloads\Всем скорбящим радость.2013.SATRip.Files-x.Всем скорбящим радость.2013.SATRip.Files-x.avi
    Формат                                   : AVI
    Формат/Информация                        : Audio Video Interleave
    Размер файла                             : 600 Мбайт
    Продолжительность                        : 43 м.
    Общий поток                              : 1913 Кбит/сек
    Программа кодирования                    : VirtualDubMod 1.5.10.3 | www.virtualdub-fr.org || (build 2550/release)
    Библиотека кодирования                   : VirtualDubMod build 2550/release
    Видео
    Идентификатор                            : 0
    Формат                                   : MPEG-4 Visual
    Профиль формата                          : Advanced Simple@L5
    Параметр BVOP формата                    : 1
    Параметр QPel формата                    : Нет
    Параметр GMC формата                     : Без точки перехода
    Параметр матрицы формата                 : Выборочная
    Идентификатор кодека                     : XVID
    Идентификатор кодека/Подсказка           : XviD
    Продолжительность                        : 43 м.
    Битрейт                                  : 1711 Кбит/сек
    Ширина                                   : 720 пикселей
    Высота                                   : 400 пикселей
    Соотношение сторон                       : 16:9
    Частота кадров                           : 25,000 кадров/сек
    Цветовое пространство                    : YUV
    Субдискретизация насыщенности            : 4:2:0
    Битовая глубина                          : 8 бит
    Тип развёртки                            : Прогрессивная
    Метод сжатия                             : С потерями
    Бит/(Пиксели*Кадры)                      : 0.238
    Размер потока                            : 537 Мбайт (89%)
    Библиотека кодирования                   : XviD 73
    Аудио
    Идентификатор                            : 1
    Формат                                   : AC-3
    Формат/Информация                        : Audio Coding 3
    Расширение режима                        : CM (complete main)
    Параметр Endianness формата              : Big
    Идентификатор кодека                     : 2000
    Продолжительность                        : 43 м.
    Вид битрейта                             : Постоянный
    Битрейт                                  : 192 Кбит/сек
    Каналы                                   : 2 канала
    Расположение каналов                     : Front: L R
    Частота                                  : 48,0 КГц
    Битовая глубина                          : 16 бит
    Метод сжатия                             : С потерями
    Размер потока                            : 60,2 Мбайт (10%)
    Выравнивание                             : Разделение по промежуткам
    Продолжительность промежутка             : 40  мс. (1,00 видеокадр)
    Время предзагрузки промежутка            : 500  мс.

    Скриншоты

    Скачать .torrent

    Скачать торрент-файл бесплатно и на максимальной скорости!

    Как скачивать? · Что такое торрент? · Рейтинг и ограничения

    !ВНИМАНИЕ!
    Сайт не распространяет и не хранит электронные версии произведений, а занимается лишь лишь предоставлением доступа к создаваемому пользователями каталогу ссылок на торрент-файлы, которые содержат только списки хеш-сумм, убедительная просьба с жалобами обращаться напрямую к пользователю. Файлы для обмена на трекере предоставлены пользователями сайта, и администрация не несёт ответственности за их содержание. Просьба не заливать файлы, защищенные авторскими правами, а также файлы нелегального содержания!


    _________________
    [Профиль] [ЛС]
    Показать сообщения:    
    Ответить на тему

    Текущее время: Сегодня, в 10:00

    Часовой пояс: GMT + 2



    Вы не можете начинать темы
    Вы не можете отвечать на сообщения
    Вы не можете редактировать свои сообщения
    Вы не можете удалять свои сообщения
    Вы не можете голосовать в опросах
    Вы не можете прикреплять файлы к сообщениям
    Вы не можете скачивать файлы