BitTorrentTracker PerecTracker.org
BitTorrentTracker PerecTracker.org
    
Регистрация  ·  Вход
 
 · 
Забыли пароль?

  • Беженка / Серии: 1-4 из 4 (Виктория Мельникова) [2016, мелодрама, WEBRip]

    Ответить на тему
     
    Автор Сообщение

    rechyn

    Создавать темы 26-Сен-2016 08:50

           

    [Цитировать]

    Беженка
    Год выпуска: 2016
    Производство: "1 + 1 Продакшн"
    Жанр: мелодрама
    Продолжительность: 00:45:00
    Субтитры: нет
    Режиссёр: Виктория Мельникова
    В ролях: Ольга Гришина, Дмитрий Гаврилов, Яна Соболевская, Виталий Салий, Марк Дробот, Дмитрий Суржиков
    Описание: Сериал затрагивает весьма горячую тему о беженцах. На сегодняшнее время происходит много конфликтов, поэтому некоторые люди вынуждены брать самое необходимое и бежать из родной страны, где разворачивается война. Главная героиня, молодая, привлекательная женщина Надя, оказалась в как раз такой ситуации. В стране, где она проживает начались военные действия, поэтому героиня принимает решение бежать. Ее уже престарелая соседка просит Надю, чтобы с собой она взяла внука, которого необходимо отвезти к родственникам, ведь старушка боится, что вскоре, она может умереть. Добрая Надя соглашается, но в пути мальчик настолько сильно привязывается к героини, что просит остаться с ней. Решив начать жизнь с чистого листа Надежда отправляется в город, где она когда-то училась...

    Релиз группа
    Все раздачи сериала: Беженка

    Качество: WEBRip
    Формат: AVI
    Видео кодек: XviD
    Аудио кодек: AC3
    Видео: MPEG-4 Visual, 720х400, 25 кадр/с, ~1500 Кбит/сек, 0,208 bit/pixel
    Аудио: АС3, 48,0 kHz, 2 ch, 192 Кбит/с

    MI

    Общее
    Полное имя                               : F:\Video\Bezenka.2016.WEB-DLRip.Files-x.Bezenka.2016.WEB-DLRip.Files-x.avi
    Формат                                   : AVI
    Формат/Информация                        : Audio Video Interleave
    Размер файла                             : 599 Мбайт
    Продолжительность                        : 49 м.
    Общий поток                              : 1698 Кбит/сек
    Программа кодирования                    : VirtualDubMod 1.5.10.3 | www.virtualdub-fr.org || (build 2550/release)
    Библиотека кодирования                   : VirtualDubMod build 2550/release
    Видео
    Идентификатор                            : 0
    Формат                                   : MPEG-4 Visual
    Профиль формата                          : Advanced Simple@L5
    Параметр BVOP формата                    : 1
    Параметр QPel формата                    : Нет
    Параметр GMC формата                     : Без точки перехода
    Параметр матрицы формата                 : Выборочная
    Идентификатор кодека                     : XVID
    Идентификатор кодека/Подсказка           : XviD
    Продолжительность                        : 49 м.
    Битрейт                                  : 1500 Кбит/сек
    Ширина                                   : 720 пикселей
    Высота                                   : 400 пикселей
    Соотношение сторон                       : 16:9
    Частота кадров                           : 25,000 кадров/сек
    Цветовое пространство                    : YUV
    Субдискретизация насыщенности            : 4:2:0
    Битовая глубина                          : 8 бит
    Тип развёртки                            : Прогрессивная
    Метод сжатия                             : С потерями
    Бит/(Пиксели*Кадры)                      : 0.208
    Размер потока                            : 528 Мбайт (88%)
    Библиотека кодирования                   : XviD 73
    Аудио
    Идентификатор                            : 1
    Формат                                   : AC-3
    Формат/Информация                        : Audio Coding 3
    Расширение режима                        : CM (complete main)
    Параметр Endianness формата              : Big
    Идентификатор кодека                     : 2000
    Продолжительность                        : 49 м.
    Вид битрейта                             : Постоянный
    Битрейт                                  : 192 Кбит/сек
    Каналы                                   : 2 канала
    Расположение каналов                     : Front: L R
    Частота                                  : 48,0 КГц
    Битовая глубина                          : 16 бит
    Метод сжатия                             : С потерями
    Размер потока                            : 67,7 Мбайт (11%)
    Выравнивание                             : Разделение по промежуткам
    Продолжительность промежутка             : 40  мс. (1,00 видеокадр)
    Время предзагрузки промежутка            : 500  мс.

    Скриншоты

    Скачать .torrent

    Скачать торрент-файл бесплатно и на максимальной скорости!

    Как скачивать? · Что такое торрент? · Рейтинг и ограничения

    !ВНИМАНИЕ!
    Сайт не распространяет и не хранит электронные версии произведений, а занимается лишь лишь предоставлением доступа к создаваемому пользователями каталогу ссылок на торрент-файлы, которые содержат только списки хеш-сумм, убедительная просьба с жалобами обращаться напрямую к пользователю. Файлы для обмена на трекере предоставлены пользователями сайта, и администрация не несёт ответственности за их содержание. Просьба не заливать файлы, защищенные авторскими правами, а также файлы нелегального содержания!


    _________________
    [Профиль] [ЛС]
    Показать сообщения:    
    Ответить на тему

    Текущее время: Сегодня, в 10:34

    Часовой пояс: GMT + 2



    Вы не можете начинать темы
    Вы не можете отвечать на сообщения
    Вы не можете редактировать свои сообщения
    Вы не можете удалять свои сообщения
    Вы не можете голосовать в опросах
    Вы не можете прикреплять файлы к сообщениям
    Вы не можете скачивать файлы