BitTorrentTracker PerecTracker.org
BitTorrentTracker PerecTracker.org
    
Регистрация  ·  Вход
 
 · 
Забыли пароль?

  • Ближе, чем кажется (Наталия Беляускене, Герман Дюкарев, Максим Воскобоев,...) [2015, Семейный, приключения, SATRip]

    Ответить на тему
     
    Автор Сообщение

    Flirldrerve

    Создавать темы 26-Сен-2016 03:00

           

    [Цитировать]

    Ближе, чем кажется
    Слоган: «Счастье рядом!»
    Жанр: Семейный, приключения
    Год выпуска: 2015
    Продолжительность: 01:31:37
    Режиссёр: Наталия Беляускене, Герман Дюкарев, Максим Воскобоев,...
    В ролях: Тимофей Трибунцев, Даниил Изотов, Максим Сапрыкин, Руслан Щедрин, Владимир Свирский, Евгения Дмитриева, Ия Нинидзе, Елизавета Зарубина, Елена Бушуева, Наталья Рычкова
    Описание: Шестилетний Коля Пыхтин, приезжает на музыкальный конкурс в столицу. Но его главная цель не победить, а отыскать своего отца, которого он никогда не видел. Детдомовец Сеня Кораблёв, обнаруживает, что в подвале есть ход, ведущий в другую реальность: на пустынное морское побережье. Сеня оказывается перед выбором — остаться навсегда в стране обмана или пойти навстречу новым родителям.
    Георгий, житель небольшой деревушки на Кавказе, переживает побег своей дочери с ухажером. Рассказать о бегстве как ему кажется — позор. Поэтому он придумывает историю, что дочь «уехала учиться в московский университет». Восьмилетняя Саша сторонится своего «второго» папу, строит ему козни. Но все меняет общее дело — надо успеть подготовить макет для маминой презентации, иначе она потеряет работу
    Сэмпл: семпл залью позже
    Качество видео: SATRip
    Формат видео: AVI
    Видео: XviD, 2000 Кбит/с, 720x304
    Аудио: MP3, 2 ch, 128 Кбит/с

    MediaInfo

    Format : AVI
    Format/Info : Audio Video Interleave
    File size : 1.37 GiB
    Duration : 1h 31mn
    Overall bit rate : 2 141 Kbps
    Video
    ID : 0
    Format : MPEG-4 Visual
    Format profile : Advanced Simple@L5
    Format settings, BVOP : 2
    Format settings, QPel : No
    Format settings, GMC : No warppoints
    Format settings, Matrix : Default (H.263)
    Codec ID : XVID
    Codec ID/Hint : XviD
    Duration : 1h 31mn
    Bit rate : 2 000 Kbps
    Width : 720 pixels
    Height : 304 pixels
    Display aspect ratio : 2.35:1
    Frame rate : 25.000 fps
    Color space : YUV
    Chroma subsampling : 4:2:0
    Bit depth : 8 bits
    Scan type : Progressive
    Compression mode : Lossy
    Bits/(Pixel*Frame) : 0.365
    Stream size : 1.28 GiB (93%)
    Writing library : XviD 1.2.1 (UTC 2008-12-04)
    Audio
    ID : 1
    Format : MPEG Audio
    Format version : Version 1
    Format profile : Layer 3
    Mode : Joint stereo
    Mode extension : MS Stereo
    Codec ID : 55
    Codec ID/Hint : MP3
    Duration : 1h 31mn
    Bit rate mode : Constant
    Bit rate : 128 Kbps
    Channel(s) : 2 channels
    Sampling rate : 48.0 KHz
    Compression mode : Lossy
    Stream size : 83.9 MiB (6%)
    Alignment : Aligned on interleaves
    Interleave, duration : 24 ms (0.60 video frame)
    Writing library : LAME3.99r
    Encoding settings : -m j -V 4 -q 9 -lowpass 17 -b 128

    Скриншоты

    Скачать .torrent

    Скачать торрент-файл бесплатно и на максимальной скорости!

    Как скачивать? · Что такое торрент? · Рейтинг и ограничения

    !ВНИМАНИЕ!
    Сайт не распространяет и не хранит электронные версии произведений, а занимается лишь лишь предоставлением доступа к создаваемому пользователями каталогу ссылок на торрент-файлы, которые содержат только списки хеш-сумм, убедительная просьба с жалобами обращаться напрямую к пользователю. Файлы для обмена на трекере предоставлены пользователями сайта, и администрация не несёт ответственности за их содержание. Просьба не заливать файлы, защищенные авторскими правами, а также файлы нелегального содержания!


    _________________
    [Профиль] [ЛС]
    Показать сообщения:    
    Ответить на тему

    Текущее время: Сегодня, в 02:07

    Часовой пояс: GMT + 2



    Вы не можете начинать темы
    Вы не можете отвечать на сообщения
    Вы не можете редактировать свои сообщения
    Вы не можете удалять свои сообщения
    Вы не можете голосовать в опросах
    Вы не можете прикреплять файлы к сообщениям
    Вы не можете скачивать файлы