BitTorrentTracker PerecTracker.org
BitTorrentTracker PerecTracker.org
    
Регистрация  ·  Вход
 
 · 
Забыли пароль?

  • Горько! (Юрий Мамин, Аркадий Тигай) [1998, комедия, DVB, AVC]

    Ответить на тему
     
    Автор Сообщение

    Flirldrerve

    Создавать темы 25-Сен-2016 22:50

           

    [Цитировать]

    Горько!
    Жанр: комедия
    Год выпуска: 1998
    Продолжительность: 01:35:52
    Режиссёр: Юрий Мамин, Аркадий Тигай
    В ролях: Кирилл Лавров, Светлана Немоляева, Александр Половцев, Михаил Пореченков, Андрей Зибров, Денис Синявский, Блэз Пака, Исаак Бойте, Евгений Фрадкин, Яков Петров, Светлана Соловьева, Ирина Куськова, Екатерина Мамина, Мария Мещерякова, Мария Казийаке, Елена Жирова, Ирина Ракшина, Ирина Сотикова, Марина Бойцова (II), Вероника Дмитриева, Алексей Заливалов, Юрий Томошевский, Анатолий Петров, Ника Стрижак, Елена Драпеко, Людмила Самохвалова, Марк Макаренков, Вадим Гущин, Сергей Селин, Андрей Федорцов
    Описание: Десять остроумных сюжетов, десять невероятно смешных приключений, десять любовных анекдотов - в одной великолепной комедии! Это сборник нелепых случаев, связанных с бракосочетанием, и трогательных любовных историй.
    Доп. информация: Запись потока *.ts со спутника EUTELSAT 36A/B, 36° в.д., ремукс в *.mkv программой VideoReDo.
    Качество видео: DVB
    Формат видео: MKV
    Видео: Advanced Video Codec, 720(768)x576 (4:3), 25,000 кадров/сек, 1 744 Кбит/сек
    Аудио: MPEG Audio, 48,0 КГц, 192 Кбит/сек, 2 канала

    MediaInfo

    General
    Unique ID : 183872709966412198075459897022454084683 (0x8A549886DF6A09E91E4D3C19C6AEB44B)
    Complete name : X:\server\НАШЕ\ГОРЬКО (РОДНОЕ КИНО).mkv
    Format : Matroska
    Format version : Version 2
    File size : 1.32 GiB
    Duration : 1h 35mn
    Overall bit rate : 1 975 Kbps
    Writing application : Lavf52.64.2
    Writing library : Lavf52.64.2
    Video
    ID : 1
    Format : AVC
    Format/Info : Advanced Video Codec
    Format profile : High@L3.0
    Format settings, CABAC : Yes
    Format settings, ReFrames : 4 frames
    Format settings, GOP : M=4, N=28
    Codec ID : V_MPEG4/ISO/AVC
    Duration : 1h 35mn
    Bit rate : 1 744 Kbps
    Width : 720 pixels
    Height : 576 pixels
    Display aspect ratio : 4:3
    Original display aspect ratio : 4:3
    Frame rate : 25.000 fps
    Standard : PAL
    Color space : YUV
    Chroma subsampling : 4:2:0
    Bit depth : 8 bits
    Scan type : Interlaced
    Scan order : Top Field First
    Bits/(Pixel*Frame) : 0.168
    Stream size : 1.17 GiB (88%)
    Default : Yes
    Forced : No
    Color primaries : BT.470-6 System B, BT.470-6 System G, BT.601-6 625, BT.1358 625, BT.1700 625 PAL, BT.1700 625 SECAM
    Transfer characteristics : BT.470-6 System B, BT.470-6 System G
    Matrix coefficients : BT.470-6 System B, BT.470-6 System G, BT.601-6 625, BT.1358 625, BT.1700 625 PAL, BT.1700 625 SECAM, IEC 61966-2-4 601
    Audio
    ID : 2
    Format : MPEG Audio
    Format version : Version 1
    Format profile : Layer 2
    Codec ID : A_MPEG/L2
    Codec ID/Hint : MP2
    Duration : 1h 35mn
    Bit rate mode : Constant
    Bit rate : 192 Kbps
    Channel(s) : 2 channels
    Sampling rate : 48.0 KHz
    Compression mode : Lossy
    Stream size : 132 MiB (10%)
    Language : Russian
    Default : Yes
    Forced : No

    Скриншот c названием фильма

    Скриншоты

    Скачать .torrent

    Скачать торрент-файл бесплатно и на максимальной скорости!

    Как скачивать? · Что такое торрент? · Рейтинг и ограничения

    !ВНИМАНИЕ!
    Сайт не распространяет и не хранит электронные версии произведений, а занимается лишь лишь предоставлением доступа к создаваемому пользователями каталогу ссылок на торрент-файлы, которые содержат только списки хеш-сумм, убедительная просьба с жалобами обращаться напрямую к пользователю. Файлы для обмена на трекере предоставлены пользователями сайта, и администрация не несёт ответственности за их содержание. Просьба не заливать файлы, защищенные авторскими правами, а также файлы нелегального содержания!


    _________________
    [Профиль] [ЛС]
    Показать сообщения:    
    Ответить на тему

    Текущее время: Сегодня, в 20:28

    Часовой пояс: GMT + 2



    Вы не можете начинать темы
    Вы не можете отвечать на сообщения
    Вы не можете редактировать свои сообщения
    Вы не можете удалять свои сообщения
    Вы не можете голосовать в опросах
    Вы не можете прикреплять файлы к сообщениям
    Вы не можете скачивать файлы