Register  ·  Log in
Forgot password?

  • Горько! (Юрий Мамин, Аркадий Тигай) [1998, комедия, DVB, AVC]

    Reply to topic
    Author Message


    Post 25-Sep-2016 23:50



    Жанр: комедия
    Год выпуска: 1998
    Продолжительность: 01:35:52
    Режиссёр: Юрий Мамин, Аркадий Тигай
    В ролях: Кирилл Лавров, Светлана Немоляева, Александр Половцев, Михаил Пореченков, Андрей Зибров, Денис Синявский, Блэз Пака, Исаак Бойте, Евгений Фрадкин, Яков Петров, Светлана Соловьева, Ирина Куськова, Екатерина Мамина, Мария Мещерякова, Мария Казийаке, Елена Жирова, Ирина Ракшина, Ирина Сотикова, Марина Бойцова (II), Вероника Дмитриева, Алексей Заливалов, Юрий Томошевский, Анатолий Петров, Ника Стрижак, Елена Драпеко, Людмила Самохвалова, Марк Макаренков, Вадим Гущин, Сергей Селин, Андрей Федорцов
    Описание: Десять остроумных сюжетов, десять невероятно смешных приключений, десять любовных анекдотов - в одной великолепной комедии! Это сборник нелепых случаев, связанных с бракосочетанием, и трогательных любовных историй.
    Доп. информация: Запись потока *.ts со спутника EUTELSAT 36A/B, 36° в.д., ремукс в *.mkv программой VideoReDo.
    Качество видео: DVB
    Формат видео: MKV
    Видео: Advanced Video Codec, 720(768)x576 (4:3), 25,000 кадров/сек, 1 744 Кбит/сек
    Аудио: MPEG Audio, 48,0 КГц, 192 Кбит/сек, 2 канала


    Unique ID : 183872709966412198075459897022454084683 (0x8A549886DF6A09E91E4D3C19C6AEB44B)
    Complete name : X:\server\НАШЕ\ГОРЬКО (РОДНОЕ КИНО).mkv
    Format : Matroska
    Format version : Version 2
    File size : 1.32 GiB
    Duration : 1h 35mn
    Overall bit rate : 1 975 Kbps
    Writing application : Lavf52.64.2
    Writing library : Lavf52.64.2
    ID : 1
    Format : AVC
    Format/Info : Advanced Video Codec
    Format profile : High@L3.0
    Format settings, CABAC : Yes
    Format settings, ReFrames : 4 frames
    Format settings, GOP : M=4, N=28
    Codec ID : V_MPEG4/ISO/AVC
    Duration : 1h 35mn
    Bit rate : 1 744 Kbps
    Width : 720 pixels
    Height : 576 pixels
    Display aspect ratio : 4:3
    Original display aspect ratio : 4:3
    Frame rate : 25.000 fps
    Standard : PAL
    Color space : YUV
    Chroma subsampling : 4:2:0
    Bit depth : 8 bits
    Scan type : Interlaced
    Scan order : Top Field First
    Bits/(Pixel*Frame) : 0.168
    Stream size : 1.17 GiB (88%)
    Default : Yes
    Forced : No
    Color primaries : BT.470-6 System B, BT.470-6 System G, BT.601-6 625, BT.1358 625, BT.1700 625 PAL, BT.1700 625 SECAM
    Transfer characteristics : BT.470-6 System B, BT.470-6 System G
    Matrix coefficients : BT.470-6 System B, BT.470-6 System G, BT.601-6 625, BT.1358 625, BT.1700 625 PAL, BT.1700 625 SECAM, IEC 61966-2-4 601
    ID : 2
    Format : MPEG Audio
    Format version : Version 1
    Format profile : Layer 2
    Codec ID : A_MPEG/L2
    Codec ID/Hint : MP2
    Duration : 1h 35mn
    Bit rate mode : Constant
    Bit rate : 192 Kbps
    Channel(s) : 2 channels
    Sampling rate : 48.0 KHz
    Compression mode : Lossy
    Stream size : 132 MiB (10%)
    Language : Russian
    Default : Yes
    Forced : No

    Скриншот c названием фильма


    Download .torrent

    Download free and at maximum speed!

    How to Download? · What is a torrent? · Ratings and Limitations

    The site does not extend and does not store electronic(digital) versions of products, and only gives access to a reference catalogue created by users on torrent-files which contain only lists of the hash-sums, the earnest entreaty, with complaints(abuse) to access directly to the user. Files for an exchange on tracker are given by users of a site, and the administration does not bear the responsibility for their maintenance. The request to not fill in the files protected by copyrights, and also files of the illegal maintenance!

    [Profile] [PM]
    Display posts from previous:    
    Reply to topic

    The time now is: Today 09:53

    All times are GMT + 3 Hours

    You cannot post new topics in this forum
    You cannot reply to topics in this forum
    You cannot edit your posts in this forum
    You cannot delete your posts in this forum
    You cannot vote in polls in this forum
    You cannot attach files in this forum
    You cannot download files in this forum