BitTorrentTracker PerecTracker.org
BitTorrentTracker PerecTracker.org
    
Регистрация  ·  Вход
 
 · 
Забыли пароль?

  • Прости / Серии: 1-4 из 4 (Роман Барабаш) [2016, Мелодрама, DVB]

    Ответить на тему
     
    Автор Сообщение

    rechyn

    Создавать темы 25-Сен-2016 22:11

           

    [Цитировать]

    Прости
    Год выпуска: 2016
    Производство: «Украинская продакшн студия»
    Жанр: Мелодрама
    Продолжительность: 00:45:00
    Субтитры: Украинские
    Режиссёр: Роман Барабаш
    В ролях: Ольга Павловец, Илья Алексеев, Артем Позняк
    Описание: Бывают ли счастливые семьи? Марина уверенна, что да. Ведь она уже много лет абсолютно счастлива в браке. У нее есть любимый муж и двое замечательных детей. Но однажды Марина узнает, что ее обожаемый Вадим завел любовницу. Благополучие семьи, ради которого она жила все эти годы, рушится как карточный домик. Муж уходит к любовнице, дети обвиняют в развале семьи мать, начинают влипать в неприятности. Когда Вадим возвращается с поджатым хвостом, Марина ради детей, скрепя сердцем, соглашается восстановить семью. Но правильно ли она поступает, снова жертвуя собой? Этот вопрос Марине задает Андрей, мужчина, который в трудное для нее время успел стать единственным и незаменимым. Что она ответит? Хватит ли у тридцатипятилетней женщины смелости изменить свою судьбу?-Релиз от: -Все раздачи сериала / Сэмпл-Качество: DVB
    Формат: TS
    Видео кодек: MPEG-2
    Аудио кодек: MP2
    Видео: MPEG-2, 720х576 (16:9), 25.000 fps, 3680 Kbps, 0.35 bit/pixel
    Аудио: MPEG Layer 2, 48.0 kHz, 2 ch, 192 Kbps

    MI

    General #1
    ID : 1 (0x1)
    Complete name : \Downloads\Prosti.(2016).DVB.Files-x
    Format : MPEG-TS
    File size : 1.45 GiB
    Duration : 50mn 59s
    Overall bit rate mode : Variable
    Overall bit rate : 4 076 Kbps
    Video #2405
    ID : 2405 (0x965)
    Menu ID : 6190 (0x182E)
    Format : MPEG Video
    Format version : Version 2
    Format profile : Main@Main
    Format settings, BVOP : Yes
    Format settings, Matrix : Custom
    Format settings, GOP : Variable
    Format settings, picture structure : Frame
    Codec ID : 2
    Duration : 50mn 59s
    Bit rate mode : Variable
    Bit rate : 3 680 Kbps
    Maximum bit rate : 15.0 Mbps
    Width : 720 pixels
    Height : 576 pixels
    Display aspect ratio : 16:9
    Frame rate : 25.000 fps
    Standard : PAL
    Color space : YUV
    Chroma subsampling : 4:2:0
    Bit depth : 8 bits
    Scan type : Interlaced
    Scan order : Top Field First
    Compression mode : Lossy
    Bits/(Pixel*Frame) : 0.355
    Time code of first frame : 00:00:00:00
    Time code source : Group of pictures header
    GOP, Open/Closed : Open
    Stream size : 1.31 GiB (90%)
    GOP, Open/Closed of first frame : Closed
    Audio #2406
    ID : 2406 (0x966)
    Menu ID : 6190 (0x182E)
    Format : MPEG Audio
    Format version : Version 1
    Format profile : Layer 2
    Codec ID : 3
    Duration : 50mn 59s
    Bit rate mode : Constant
    Bit rate : 192 Kbps
    Channel(s) : 1 channel
    Sampling rate : 48.0 KHz
    Compression mode : Lossy
    Delay relative to video : 2ms
    Stream size : 70.0 MiB (5%)
    Language : Ukrainian

    Скриншоты

    Скачать .torrent

    Скачать торрент-файл бесплатно и на максимальной скорости!

    Как скачивать? · Что такое торрент? · Рейтинг и ограничения

    !ВНИМАНИЕ!
    Сайт не распространяет и не хранит электронные версии произведений, а занимается лишь лишь предоставлением доступа к создаваемому пользователями каталогу ссылок на торрент-файлы, которые содержат только списки хеш-сумм, убедительная просьба с жалобами обращаться напрямую к пользователю. Файлы для обмена на трекере предоставлены пользователями сайта, и администрация не несёт ответственности за их содержание. Просьба не заливать файлы, защищенные авторскими правами, а также файлы нелегального содержания!


    _________________
    [Профиль] [ЛС]
    Показать сообщения:    
    Ответить на тему

    Текущее время: Сегодня, в 02:52

    Часовой пояс: GMT + 2



    Вы не можете начинать темы
    Вы не можете отвечать на сообщения
    Вы не можете редактировать свои сообщения
    Вы не можете удалять свои сообщения
    Вы не можете голосовать в опросах
    Вы не можете прикреплять файлы к сообщениям
    Вы не можете скачивать файлы