BitTorrentTracker PerecTracker.org
BitTorrentTracker PerecTracker.org
    
Регистрация  ·  Вход
 
 · 
Забыли пароль?

  • Мистер Робот / Mr. Robot / Сезон: 2 / Серии: 1-12 из 12 (Нильс Арден Оплев) [2016, США, драма, криминал, WEBRip 720p] Original + Rus Sub (notabenoid) + Eng Sub

    Ответить на тему
     
    Автор Сообщение

    rechyn

    Создавать темы 25-Сен-2016 22:05

           

    [Цитировать]

    Мистер Робот / Mr. Robot
    Год выпуска: 2016
    Страна: США
    Жанр: драма, криминал
    Продолжительность: 12 х 40-62 мин
    Перевод: Субтитры notabenoid
    Режиссёр: Нильс Арден Оплев
    В ролях: Рами Малек, Кристиан Сэйтер, Брюс Олтмен, Майкл Бушеми, Карли Чаикин, Самрат Чакрабарти, Портия Даблдэй, Маурицио Ферриньо, Майкл Гилл, Джереми С. Холм, Диллон Мэтьюз
    Описание: История молодого программиста Эллиота, страдающего диссоциальным расстройством личности и решившего, что единственный приемлемый для него способ взаимодействия с людьми - это профессия хакера. Таким образом, он быстро оказывается в том самом месте, где пересекаются интересы его работодателя - фирмы, занимающейся кибербезопасностью, - и подпольных организаций, которые пытаются его завербовать с целью обрушения самых могучих американских корпораций.
    Ссылка на предыдущие и альтернативные раздачи: http://perectracker.org/tracker.php?f=318&nm=Mr+Robot
    Сэмпл: https://yadi.sk/i/wWihDuB_uJy8S
    Качество: WEBRip 720p
    Контейнер: MKV
    Видео: AVC, 1280x720 (16:9), 23,976 fps, ~4000 kbps
    Аудио: Eng, AC3, 48 kHz, 6 ch, 384 kbps
    Субтитры: Русские (софтсаб) + Английские (софтсаб)

    Список серий

    Mr.Robot S02E01 [eps2.0_unm4sk-pt1.tc]
    Mr.Robot S02E02 [eps2.0_unm4sk-pt2.tc]
    Mr.Robot S02E03 [eps2.1_k3rnel-pan1c.ksd]
    Mr.Robot S02E04 [eps2.2_init1.asec]
    Mr.Robot S02E05 [eps2.3_logic‐b0mb.hc]
    Mr.Robot S02E06 [eps2.4_m4ster-s1ave.aes]
    Mr.Robot S02E07 [eps2.5_h4ndshake.sme]
    Mr.Robot S02E08 [eps2.6_succ3ss0r.p12]
    Mr.Robot S02E09 [eps2.7_init_5.fve]
    Mr.Robot S02E10 [eps2.8_h1dden-pr0cess.axx]
    Mr.Robot S02E11 [eps2.9_pyth0n-pt1.p7z]
    Mr.Robot S02E11 [eps2.9_pyth0n-pt2.p7z]

    Даты выхода серий

    (естественно, без учета того, когда эти серии появились/появятся здесь)
    2x01 eps2.0_unm4sk-pt1.tc - 10 июля 2016
    2x02 eps2.0_unm4sk-pt2.tc - 13 июля 2016
    2x03 eps2.1_k3rnel-pan1c.ksd - 20 июля 2016
    2x04 eps2.2_init1.asec - 27 июля 2016
    2x05 eps2.3_logic-b0mb.hc - 3 августа 2016
    2x06 eps2.4_m4ster-s1ave.aes - 10 августа 2016
    2x07 eps2.5_h4ndshake.sme - 17 августа 2016
    2x08 eps2.6_succ3ss0r.p12 - 24 августа 2016
    2x09 eps2.7_init5.fve - 31 августа 2016
    2x10 eps2.8_h1dden-pr0cess.axx - 7 сентября 2016
    2x11 eps2.9_pyth0n-pt1.p7z - 14 сентября 2016
    2x12 eps2.9_pyth0n-pt2.p7z - 21 сентября 2016

    MediaInfo

    General
    Format : Matroska
    Format version : Version 4 / Version 2
    File size : 1.28 GiB
    Duration : 40mn 57s
    Overall bit rate : 4 462 Kbps
    Movie name : Mr. Robot 2x01 eps2.0_unm4sk-pt1.tc
    Encoded date : UTC 2016-08-17 21:51:13
    Writing application : mkvmerge v9.3.1 ('Mask Machine') 64bit
    Writing library : libebml v1.3.4 + libmatroska v1.4.5
    Video
    ID : 1
    Format : AVC
    Format/Info : Advanced Video Codec
    Format profile : High@L3.1
    Format settings, CABAC : No
    Format settings, ReFrames : 2 frames
    Codec ID : V_MPEG4/ISO/AVC
    Duration : 40mn 57s
    Bit rate : 4 076 Kbps
    Width : 1 280 pixels
    Height : 720 pixels
    Display aspect ratio : 16:9
    Frame rate mode : Constant
    Frame rate : 23.976 (24000/1001) fps
    Color space : YUV
    Chroma subsampling : 4:2:0
    Bit depth : 8 bits
    Scan type : Progressive
    Bits/(Pixel*Frame) : 0.184
    Stream size : 1.17 GiB (91%)
    Language : English
    Default : No
    Forced : No
    Color range : Limited
    Color primaries : BT.709
    Transfer characteristics : BT.709
    Matrix coefficients : BT.709
    Audio
    ID : 2
    Format : AC-3
    Format/Info : Audio Coding 3
    Mode extension : CM (complete main)
    Format settings, Endianness : Big
    Codec ID : A_AC3
    Duration : 40mn 57s
    Bit rate mode : Constant
    Bit rate : 384 Kbps
    Channel(s) : 6 channels
    Channel positions : Front: L C R, Side: L R, LFE
    Sampling rate : 48.0 KHz
    Frame rate : 31.250 fps (1536 spf)
    Compression mode : Lossy
    Delay relative to video : 23ms
    Stream size : 113 MiB (9%)
    Language : English
    Default : No
    Forced : No
    Text #1
    ID : 3
    Format : UTF-8
    Codec ID : S_TEXT/UTF8
    Codec ID/Info : UTF-8 Plain Text
    Duration : 40mn 28s
    Bit rate : 111 bps
    Count of elements : 566
    Stream size : 33.0 KiB (0%)
    Language : Russian
    Default : Yes
    Forced : No
    Text #2
    ID : 4
    Format : UTF-8
    Codec ID : S_TEXT/UTF8
    Codec ID/Info : UTF-8 Plain Text
    Duration : 40mn 22s
    Bit rate : 67 bps
    Count of elements : 664
    Stream size : 20.0 KiB (0%)
    Language : English
    Default : No
    Forced : No

    Раздача ведется путем добавления новых серий

    Когда раздача ведётся путём добавления новых серий, при каждом добавлении создётся новый торрент. Чтобы начать докачку новой серии, пользователям необходимо сделать следующее:
    (1) остановить скачивание,
    (2) удалить старый торрент у себя из клиента (старые серии удалять не надо),
    (3) скачать новый торрент и запустить его у себя в клиенте вместо старого, при этом указать клиенту путь в старую папку, куда и должно происходить скачивание новых серий.
    Ваш клиент при этом должен произвести хеширование (проверку) старой папки (если не производит сам - помогите ему сделать это), и будет докачивать только те серии, которых у вас ещё нет. Старые серии при этом не удаляются, а продолжают раздаваться!
    Eсли вы уже удалили старые серии, то предотвратить повторную закачку старых серий можно, отжав галочку в соответствующих местах при запуске нового торрента. По возможности, желательно не удалять старые серии как можно дольше, чтобы релизёр не столько продолжал раздавать старые серии, а смог сконцентрироваться на новых.

    Скриншоты

    Скачать .torrent

    Скачать торрент-файл бесплатно и на максимальной скорости!

    Как скачивать? · Что такое торрент? · Рейтинг и ограничения

    !ВНИМАНИЕ!
    Сайт не распространяет и не хранит электронные версии произведений, а занимается лишь лишь предоставлением доступа к создаваемому пользователями каталогу ссылок на торрент-файлы, которые содержат только списки хеш-сумм, убедительная просьба с жалобами обращаться напрямую к пользователю. Файлы для обмена на трекере предоставлены пользователями сайта, и администрация не несёт ответственности за их содержание. Просьба не заливать файлы, защищенные авторскими правами, а также файлы нелегального содержания!


    _________________
    [Профиль] [ЛС]
    Показать сообщения:    
    Ответить на тему

    Текущее время: Сегодня, в 20:37

    Часовой пояс: GMT + 2



    Вы не можете начинать темы
    Вы не можете отвечать на сообщения
    Вы не можете редактировать свои сообщения
    Вы не можете удалять свои сообщения
    Вы не можете голосовать в опросах
    Вы не можете прикреплять файлы к сообщениям
    Вы не можете скачивать файлы