BitTorrentTracker PerecTracker.org
BitTorrentTracker PerecTracker.org
    
Регистрация  ·  Вход
 
 · 
Забыли пароль?

  • Непокорные / Les mauvaises tetes (Пьер Изуар / Pierre Isoard) [2012, Франция, комедия, драма, DVB] Original (Fre) + Sub (Rus, Eng, Fre, Deu)

    Ответить на тему
     
    Автор Сообщение

    Light

    Создавать темы 25-Сен-2016 18:40

           

    [Цитировать]

    Непокорные
    Les mauvaises têtes-Страна: Франция
    Жанр: комедия, драма
    Год выпуска: 2012
    Продолжительность: 01:26:24
    Перевод: Субтитры (перевод О.Першиной, Éclair Group)
    Cубтитры: русские, английские, французские, немецкие, нидерландские
    Оригинальная аудиодорожка: французский
    Режиссер: Пьер Изуар / Pierre IsoardВ ролях: Даниель Прево / Daniel Prévost (Paul), Камелия Жордана / Camélia Jordana (Fanny), Люс Мушель / Luce Mouchel (Marthe), Милен Демонжо / Mylène Demongeot (Virginie), Анн Луаре / Anne Loiret (Drumont), Бенжамен Эньер / Benjamin Egner (Hector), Бенжамен Ванжерме / Benjamin Wangermée (Bilal), Анник Алан / Annick Alane (Suzanne), Поль Гранье / Paul Granier (Sylvain)
    Описание: Поль Риве, овдовевший 70-летний пенсионер вынужден делить квартиру со студенткой медицинского факультета. Поль сварлив и маниакально скуп, в то время как Фанни амбициозна и решительно настроена на успех. Их сосуществование далеко от совершенства до тех пор, пока из-за финансовых проблем Фанни не решает отказаться от важного экзамена…
    Доп. информация: Hot Bird (13.0°E) TV5MONDE Europe DVB-S
    Участник Festival du film de télévision de Luchon 2013.

    Качество видео: DVB
    Формат видео: MKV
    Видео: MPEG Video 2, 720x576@1024x576 (16:9), 25 fps, ~2906 kbps avg, 0.280 bit/pixel
    Аудио: MPEG Audio 2, 2 ch, 48 kHz, 192 kbps - французский
    Формат субтитров: softsub (SRT)

    Пример субтитров

    100:00:28,143 --> 00:00:31,143НЕПОКОРНЫЕ
    200:01:40,023 --> 00:01:43,023-Что вы делаете?-Меняю замок.
    300:01:43,023 --> 00:01:44,783Что? Не имеете права.
    400:01:44,783 --> 00:01:46,143Я предупреждал.
    500:01:46,143 --> 00:01:47,580Вы должныза 3 месяца.
    600:01:47,580 --> 00:01:48,7413 месяца
    700:01:48,741 --> 00:01:50,897вы не ремонтируете крышу.
    800:01:50,897 --> 00:01:52,749Я заплачу после ремонта.
    900:01:52,749 --> 00:01:55,661Когда заплатите,я дам вам ключ.
    1000:01:55,661 --> 00:01:58,620-Это шантаж!-Да.
    1100:01:58,620 --> 00:02:01,620А мои вещи?
    1200:02:03,223 --> 00:02:06,223Скотина!
    1300:02:09,781 --> 00:02:12,781-Можешь одолжить мне одежду?-Да.
    1400:02:52,223 --> 00:02:55,223Соматические клетки -диплоидные,
    1500:02:55,256 --> 00:02:58,256имеющие23 пары хромосом.
    1600:02:58,864 --> 00:03:00,464То есть, 2 генома.
    1700:03:00,464 --> 00:03:03,464Напротив,гаплоидные клетки...
    1800:03:11,059 --> 00:03:14,059Вот это да!
    1900:03:18,303 --> 00:03:21,303Тише!
    2000:03:23,942 --> 00:03:26,222Соматические клетки -диплоидные.

    MediaInfo

    GeneralUnique ID : 187368570109337905321013516291314300719 (0x8CF5DFBD39030A44A2789625EF7C372F)Complete name : [apreder]Les_mauvaises_tetes(2012)DVB.mkvFormat : MatroskaFormat version : Version 2File size : 1.91 GiBDuration : 1 h 26 minOverall bit rate : 3 161 kb/sMovie name : Les mauvaises têtesReleased date : 2013-09-11Encoded date : UTC 2016-09-25 11:24:25Writing application : mkvmerge v9.4.2 ('So High') 64bitWriting library : libebml v1.3.4 + libmatroska v1.4.5Cover : YesAttachments : cover.jpg / small_cover.jpgACTOR : Daniel Prévost, Camélia Jordana, Mylène DemongeotDIRECTOR : Pierre IsoardGENRE : ComedyIMDB : tt3135362KEYWORDS : perectracker.orgLAW_RATING : 16+
    VideoID : 1Format : MPEG VideoFormat version : Version 2Format profile : Main@MainFormat settings, BVOP : YesFormat settings, Matrix : CustomFormat settings, GOP : M=4, N=12Format settings, picture structure : FrameCodec ID : V_MPEG2Codec ID/Info : MPEG 1 or 2 VideoDuration : 1 h 26 minBit rate : 2 906 kb/sMaximum bit rate : 3 200 kb/sWidth : 720 pixelsHeight : 576 pixelsDisplay aspect ratio : 16:9Frame rate mode : ConstantFrame rate : 25.000 FPSStandard : PALColor space : YUVChroma subsampling : 4:2:0Bit depth : 8 bitsScan type : InterlacedScan order : Top Field FirstCompression mode : LossyBits/(Pixel*Frame) : 0.280Stream size : 1.75 GiB (92%)Default : YesForced : No
    AudioID : 2Format : MPEG AudioFormat version : Version 1Format profile : Layer 2Mode : Joint stereoMode extension : Intensity Stereo + MS StereoCodec ID : A_MPEG/L2Codec ID/Hint : MP2Duration : 1 h 26 minBit rate mode : ConstantBit rate : 192 kb/sChannel(s) : 2 channelsSampling rate : 48.0 kHzCompression mode : LossyStream size : 119 MiB (6%)Language : FrenchDefault : YesForced : No
    Text #1ID : 3Format : UTF-8Codec ID : S_TEXT/UTF8Codec ID/Info : UTF-8 Plain TextLanguage : RussianDefault : NoForced : No
    Text #2ID : 4Format : UTF-8Codec ID : S_TEXT/UTF8Codec ID/Info : UTF-8 Plain TextLanguage : EnglishDefault : NoForced : No
    Text #3ID : 5Format : UTF-8Codec ID : S_TEXT/UTF8Codec ID/Info : UTF-8 Plain TextLanguage : FrenchDefault : NoForced : No
    Text #4ID : 6Format : UTF-8Codec ID : S_TEXT/UTF8Codec ID/Info : UTF-8 Plain TextLanguage : GermanDefault : NoForced : No
    Text #5ID : 7Format : UTF-8Codec ID : S_TEXT/UTF8Codec ID/Info : UTF-8 Plain TextLanguage : DutchDefault : NoForced : No

    Скриншот c названием фильма

    Скриншоты

    Резервные скриншоты


    -]
    Скачать .torrent

    Скачать торрент-файл бесплатно и на максимальной скорости!

    Как скачивать? · Что такое торрент? · Рейтинг и ограничения

    !ВНИМАНИЕ!
    Сайт не распространяет и не хранит электронные версии произведений, а занимается лишь лишь предоставлением доступа к создаваемому пользователями каталогу ссылок на торрент-файлы, которые содержат только списки хеш-сумм, убедительная просьба с жалобами обращаться напрямую к пользователю. Файлы для обмена на трекере предоставлены пользователями сайта, и администрация не несёт ответственности за их содержание. Просьба не заливать файлы, защищенные авторскими правами, а также файлы нелегального содержания!


    _________________
    [Профиль] [ЛС]
    Показать сообщения:    
    Ответить на тему

    Текущее время: Сегодня, в 10:43

    Часовой пояс: GMT + 2



    Вы не можете начинать темы
    Вы не можете отвечать на сообщения
    Вы не можете редактировать свои сообщения
    Вы не можете удалять свои сообщения
    Вы не можете голосовать в опросах
    Вы не можете прикреплять файлы к сообщениям
    Вы не можете скачивать файлы