BitTorrentTracker PerecTracker.org
BitTorrentTracker PerecTracker.org
    
Регистрация  ·  Вход
 
 · 
Забыли пароль?

  • Безбашенный Ник / Ник Чиллер: Опасные каникулы / Tschiller: Off Duty (Кристиан Альварт / Christian Alvart) [2016, Германия, боевик, триллер, комедия, HDRip] MVO (ViruseProject)

    Ответить на тему
     
    Автор Сообщение

    rechyn

    Создавать темы 24-Сен-2016 21:45

           

    [Цитировать]

    Безбашенный Ник / Ник Чиллер: Опасные каникулы / Tschiller: Off Duty
    Год выпуска: 2016
    Страна: Германия
    Жанр: боевик, триллер, комедия
    Продолжительность: 02:20:15
    Перевод: Любительский (многоголосый закадровый) ViruseProject
    Субтитры: нет
    Режиссёр: Кристиан Альварт / Christian Alvart
    В ролях: Тиль Швайгер, Ральф Мёллер, Роберт Маазер, Беррак Тюзюнатач, Эрол Афсин и др.
    Описание: Старший комиссар криминальной полиции Ник Чиллер отстранен от несения службы. Во время вынужденного отпуска он пытается наладить отношения с дочерью Ленни, которая никак не может оправиться после убийства матери. В один прекрасный день она решает навестить убийцу мамы в Стамбуле и отомстить. Она бесследно исчезает, не сказав никому ни слова. Напарнику Чиллера удается выяснить, куда сбежала девушка, отследив местонахождение ее мобильного телефона. От этой новости у бесстрашного полицейского стынет кровь, так как в Стамбуле находится его злейший враг и убийца жены Фират Астан, которому удалось совершить побег из тюрьмы. Вместе со своим напарником он отправляется на поиски дочери. В Стамбуле они узнают, что опоздали. Девушка была схвачена злодеем по имени Сулейман Шекер и продана в рабство в Москву.
    ПыСы: данный фильм является 5-м фильмом в серии про "Ника Чиллера", предыдущие 4 фильма можете посмотреть на сайте ViruseProject или в группе в ВК, либо погуглите. Называется "Место преступления: Ник Чиллер / Tatort"
    Релиз без рекламы.



    скачать СЕМПЛ с multi-up
    Качество: HDRip
    Формат: AVI
    Видео кодек: XviD
    Аудио кодек: AC3
    Видео: 720x304 (2.37:1), 23.976 fps, XviD build 50 ~1293 kbps avg, 0.25 bit/pixel
    Аудио: 48 kHz, AC3 Dolby Digital, 2/0 (L,R) ch, ~192 kbps

    MediaInfo

    General
    Complete name : D:\Tschiller.Off.Duty.2016.ViruseProject.avi
    Format : AVI
    Format/Info : Audio Video Interleave
    File size : 1.46 GiB
    Duration : 2 h 20 min
    Overall bit rate : 1 495 kb/s
    Writing application : VirtualDubMod 1.5.10.2 (build 2540/release)
    Writing library : VirtualDub build 35491/release
    Video
    ID : 0
    Format : MPEG-4 Visual
    Format profile : Advanced Simple@L5
    Format settings, BVOP : 1
    Format settings, QPel : No
    Format settings, GMC : No warppoints
    Format settings, Matrix : Default (MPEG)
    Codec ID : XVID
    Codec ID/Hint : XviD
    Duration : 2 h 20 min
    Bit rate : 1 294 kb/s
    Width : 720 pixels
    Height : 304 pixels
    Display aspect ratio : 2.35:1
    Frame rate : 23.976 (23976/1000) FPS
    Color space : YUV
    Chroma subsampling : 4:2:0
    Bit depth : 8 bits
    Scan type : Progressive
    Compression mode : Lossy
    Bits/(Pixel*Frame) : 0.247
    Stream size : 1.27 GiB (87%)
    Writing library : XviD 1.2.1 (UTC 2008-12-04)
    Audio
    ID : 1
    Format : AC-3
    Format/Info : Audio Coding 3
    Mode extension : CM (complete main)
    Format settings, Endianness : Big
    Codec ID : 2000
    Duration : 2 h 20 min
    Bit rate mode : Constant
    Bit rate : 192 kb/s
    Channel(s) : 2 channels
    Channel positions : Front: L R
    Sampling rate : 48.0 kHz
    Frame rate : 31.250 FPS (1536 spf)
    Compression mode : Lossy
    Stream size : 193 MiB (13%)
    Alignment : Aligned on interleaves
    Interleave, duration : 42 ms (1.00 video frame)
    Interleave, preload duration : 512 ms

    Скриншоты

    Скачать .torrent

    Скачать торрент-файл бесплатно и на максимальной скорости!

    Как скачивать? · Что такое торрент? · Рейтинг и ограничения

    !ВНИМАНИЕ!
    Сайт не распространяет и не хранит электронные версии произведений, а занимается лишь лишь предоставлением доступа к создаваемому пользователями каталогу ссылок на торрент-файлы, которые содержат только списки хеш-сумм, убедительная просьба с жалобами обращаться напрямую к пользователю. Файлы для обмена на трекере предоставлены пользователями сайта, и администрация не несёт ответственности за их содержание. Просьба не заливать файлы, защищенные авторскими правами, а также файлы нелегального содержания!


    _________________
    [Профиль] [ЛС]
    Показать сообщения:    
    Ответить на тему

    Текущее время: Сегодня, в 20:59

    Часовой пояс: GMT + 2



    Вы не можете начинать темы
    Вы не можете отвечать на сообщения
    Вы не можете редактировать свои сообщения
    Вы не можете удалять свои сообщения
    Вы не можете голосовать в опросах
    Вы не можете прикреплять файлы к сообщениям
    Вы не можете скачивать файлы