BitTorrentTracker PerecTracker.org
BitTorrentTracker PerecTracker.org
    
Регистрация  ·  Вход
 
 · 
Забыли пароль?

  • Римские свидания / All Roads Lead to Rome (Элла Лемхаген / Ella Lemhagen) [2015, США, Комедия, мелодрама, HDRip] Dub (iTunes)

    Ответить на тему
     
    Автор Сообщение

    Light

    Создавать темы 24-Сен-2016 13:25

           

    [Цитировать]

    Римские свидания / All Roads Lead to Rome
    Страна: США
    Жанр: Комедия, мелодрама
    Год выпуска: 2015
    Продолжительность: 01:31:27
    Перевод: Профессиональный (дублированный) iTunes
    Cубтитры: нет
    Режиссер: Элла Лемхаген / Ella Lemhagen
    В ролях: Сара Джессика Паркер, Рози Дэй, Рауль Бова, Клаудия Кардинале, Пас Вега, Кьяра Бассерманн, Марко Бонини, Джанклаудио Каретта, Барни Харрис, Паола Лавини
    Описание: После развода все проблемы с воспитанием дочки легли лишь на плечи Мэгги и с каждым разом справляться с её выходками все сложнее. Но когда парня Саммер вызвали в полицию из-за наркотиков, героиня фильма «Римские свидания» увезла дочь в далекую Италию, но и там не смогла удержать от безумства. Саммет сорвалась с места и, выкрав авто, ринулась в аэропорт, что бы вернуться обратно в Америку. Мэгги тут же бросилась вдогонку, да еще и не сама, а в компании своего бывшего парня, по совместительству сыном бабульки, которая так же умчалась в аэропорт вместе с Саммер. Веселенькая предстоит поездка......
    Сэмпл: http://multi-up.com/1119049
    Качество видео: HDRip
    Формат видео: AVI
    Видео: XviD, 720x304, (2,35:1), 25,000 fps, 1842 Кбит/с, 8 бит
    Аудио: Русский (АС3, 6 ch (Front: L C R, Side: L R, LFE), 48,0 KHz, 384 Kbps)

    MediaInfo

    Общее
    Полное имя : F:\Видеофильмы\В и д е о\Римские свидания (комедия мелодрама 2015год).avi
    Формат : AVI
    Формат/Информация : Audio Video Interleave
    Размер файла : 1,37 Гбайт
    Продолжительность : 1 ч. 27 м.
    Общий поток : 2235 Кбит/сек
    Программа кодирования : VirtualDubMod 1.5.10.2 (build 2540/release)
    Видео
    Идентификатор : 0
    Формат : MPEG-4 Visual
    Профиль формата : Advanced Simple@L5
    Параметр BVOP формата : 2
    Параметр QPel формата : Нет
    Параметр GMC формата : Без точки перехода
    Параметр матрицы формата : Default (MPEG)
    Идентификатор кодека : XVID
    Идентификатор кодека/Подсказка : XviD
    Продолжительность : 1 ч. 27 м.
    Битрейт : 1842 Кбит/сек
    Ширина : 720 пикселей
    Высота : 304 пикселя
    Соотношение сторон : 2,35:1
    Частота кадров : 25,000 кадров/сек
    Цветовое пространство : YUV
    Субдискретизация насыщенности : 4:2:0
    Битовая глубина : 8 бит
    Тип развёртки : Прогрессивная
    Метод сжатия : С потерями
    Бит/(Пиксели*Кадры) : 0.337
    Размер потока : 1,13 Гбайт (82%)
    Библиотека кодирования : XviD 1.2.1 (UTC 2008-12-04)
    Аудио
    Идентификатор : 1
    Формат : AC-3
    Формат/Информация : Audio Coding 3
    Расширение режима : CM (complete main)
    Параметр Endianness формата : Big
    Идентификатор кодека : 2000
    Продолжительность : 1 ч. 27 м.
    Вид битрейта : Постоянный
    Битрейт : 384 Кбит/сек
    Каналы : 6 каналов
    Расположение каналов : Front: L C R, Side: L R, LFE
    Частота : 48,0 КГц
    Частота кадров : 31,250 кадров/сек (1536 spf)
    Метод сжатия : С потерями
    Размер потока : 240 Мбайт (17%)
    Выравнивание : Разделение по промежуткам
    Продолжительность промежутка : 40 мс. (1,00 видеокадр)
    Время предзагрузки промежутка : 500 мс.
    Язык : Не определен

    Скриншот c названием фильма

    Скриншоты

    Скачать .torrent

    Скачать торрент-файл бесплатно и на максимальной скорости!

    Как скачивать? · Что такое торрент? · Рейтинг и ограничения

    !ВНИМАНИЕ!
    Сайт не распространяет и не хранит электронные версии произведений, а занимается лишь лишь предоставлением доступа к создаваемому пользователями каталогу ссылок на торрент-файлы, которые содержат только списки хеш-сумм, убедительная просьба с жалобами обращаться напрямую к пользователю. Файлы для обмена на трекере предоставлены пользователями сайта, и администрация не несёт ответственности за их содержание. Просьба не заливать файлы, защищенные авторскими правами, а также файлы нелегального содержания!


    _________________
    [Профиль] [ЛС]
    Показать сообщения:    
    Ответить на тему

    Текущее время: Сегодня, в 18:54

    Часовой пояс: GMT + 2



    Вы не можете начинать темы
    Вы не можете отвечать на сообщения
    Вы не можете редактировать свои сообщения
    Вы не можете удалять свои сообщения
    Вы не можете голосовать в опросах
    Вы не можете прикреплять файлы к сообщениям
    Вы не можете скачивать файлы