BitTorrentTracker PerecTracker.org
BitTorrentTracker PerecTracker.org
    
Регистрация  ·  Вход
 
 · 
Забыли пароль?

  • [ATV3] Спарта (Николай Кудряшов) [2016, Россия, Боевик, драма, WEB-DL, HD (1080p)] Original

    Ответить на тему
     
    Автор Сообщение

    rechyn

    Создавать темы 24-Сен-2016 04:55

           

    [Цитировать]

    Спарта
    «Без права на ошибку. Без права на реванш»
    4.174 / 10
    -Год выпуска: 2016
    Страна: Россия
    Жанр: Боевик, драма
    Продолжительность: 01:22:45
    Перевод: Не требуется
    Оригинальная аудиодорожка: Есть
    Cубтитры: Нет
    Режиссёр: Николай Кудряшов
    Сценарий: Вячеслав Акулов
    Продюсер: Федор Кинигопуло, Антон Харченко
    Оператор: Валерий Петров
    Монтаж: Георгий Гашокин
    В ролях: Николай Кудряшов, Денис Никифоров, Ян Цапник, Владимир Епифанцев, Максим Коновалов, Андрей Семенов, Михаил Малютин, Александр Шлеменко, Наталия Власова
    Сборы в России: $649 593
    Премьера (РФ): 25 августа 2016
    Описание: Прямоугольный ринг и две команды бойцов друг напротив друга. Когда силы кончаются, товарища сменяет тот, кто за спиной… Это — Спарта! Новый зрелищный вид единоборств. «Спарта» для бывшего чемпиона по боям без правил Николая — единственная возможность вернуться в большой спорт и решить все проблемы, которые свалились на него три года назад: драка за честь подруги и тюрьма, предательство возлюбленной и отказ тренера в возвращении в команду. Вместе с верными друзьями спортсмен готов бросить вызов всему миру, и ставкой в бои станет его будущая жизнь.-Качество исходника: WEB-DL 1080p (BlueBird)
    Качество: WEB-DL
    Тип: HD (1080p)
    Контейнер: M4V
    Видео: H.264, 1920x816, 2.35:1, 4 870 Kbps, 25.000 fps
    Аудио 1: Русский/Оригинальная дорожка , AAC / 2.0 / 160 Kbps / 48.0 KHz
    Аудио 2: Русский/Оригинальная дорожка , AC-3 / 5.1 / 384 Kbps / 48.0 KHz
    -

    iTunes Meta Tags

    Sort Name: Спарта
    XID: Apple:vendor_id:2016-974203
    contentID: 1153082340
    Copyright: © 2016 Арго Фильм
    Screenwriters: Вячеслав Акулов
    Producers: Федор Кинигопуло, Антон Харченко
    Director: Николай Кудряшов
    Cast: Николай Кудряшов, Денис Никифоров, Ян Цапник, Владимир Епифанцев, Максим Коновалов, Андрей Семенов, Михаил Малютин, Александр Шлеменко, Наталия Власова
    Studio: Арго Фильм
    Rating: 135
    Long Description: Прямоугольный ринг и две команды бойцов друг напротив друга. Когда силы кончаются, товарища сменяет тот, кто за спиной... Это - Спарта! Новый зрелищный вид единоборств. "Спарта" для бывшего чемпиона по боям без правил Николая - единственная возможность вернуться в большой спорт и решить все проблемы, которые свалились на него три года назад: драка за честь подруги и тюрьма, предательство возлюбленной и отказ тренера в возвращении в команду. Вместе с верными друзьями спортсмен готов бросить вызов всему миру, и ставкой в бои станет его будущая жизнь.
    Description: Прямоугольный ринг и две команды бойцов друг напротив друга. Когда силы кончаются, товарища сменяет тот, кто за спиной... Это - Спарта! Новый зрелищный вид единоборств. "Спарта" для бывшего чемпиона по боям без правил Николая - единственная возможность вернуться в большой спорт и решить все проблемы, которые свалились на него три года назад: драка за честь подруги и тюрьма, предательство возлюбленной и отказ тренера в возвращении в команду. Вместе с верными друзьями спортсмен готов бросить вызов всему миру, и ставкой в бои станет его будущая жизнь.
    Release Date: 2016-01-01T08:00:00Z
    Genre: Русское кино
    Artist: Николай Кудряшов
    Name: Спарта

    MediaInfo

    General
    Complete name : /Users/imac/HandBrake/Sparta.WEB-DL.1080p.m4v
    Format : MPEG-4
    Codec ID : M4V
    File size : 3.13 GiB
    Duration : 1h 22mn
    Overall bit rate mode : Variable
    Overall bit rate : 5 419 Kbps
    Movie name : Спарта
    Performer : Николай Кудряшов
    Director : Николай Кудряшов
    Actor : Николай Кудряшов / Денис Никифоров / Ян Цапник / Владимир Епифанцев / Максим Коновалов / Андрей Семенов / Михаил Малютин / Александр Шлеменко / Наталия Власова
    Screenplay by : Вячеслав Акулов
    Producer : Федор Кинигопуло / Антон Харченко
    Production studio : Арго Фильм
    Genre : Русское кино
    ContentType : Short Film
    Description : Прямоугольный ринг и две команды бойцов друг напротив друга. Когда силы кончаются, товарища сменяет тот, кто за спиной... Это - Спарта! Новый зрелищный вид единоборств. "Спарта" для бывшего чемпиона по боям без правил Николая - единственная возможность вернуться в большой спорт и решить все проблемы, которые свалились на него три года назад: драка за честь подруги и тюрьма, предательство возлюбленной и отказ тренера в возвращении в команду. Вместе с верными друзьями спортсмен готов бросить вызов всему миру, и ставкой в бои станет его будущая жизнь.
    Recorded date : UTC 2016-01-01 08:00:00
    Encoded date : UTC 2016-09-23 21:59:16
    Tagged date : UTC 2016-09-23 22:00:35
    Copyright : © 2016 Арго Фильм
    Cover : Yes
    Rating : None
    Title/Sort : Спарта
    LongDescription : Прямоугольный ринг и две команды бойцов друг напротив друга. Когда силы кончаются, товарища сменяет тот, кто за спиной... Это - Спарта! Новый зрелищный вид единоборств. "Спарта" для бывшего чемпиона по боям без правил Николая - единственная возможность вернуться в большой спорт и решить все проблемы, которые свалились на него три года назад: драка за честь подруги и тюрьма, предательство возлюбленной и отказ тренера в возвращении в команду. Вместе с верными друзьями спортсмен готов бросить вызов всему миру, и ставкой в бои станет его будущая жизнь.
    AppleStoreCatalogID : 1153082340
    Vendor : Apple:vendor_id:2016-974203
    ContentRating : ru-movie|16+|375|
    Video #1
    ID : 1
    Format : AVC
    Format/Info : Advanced Video Codec
    Format profile : High@L4
    Format settings, CABAC : Yes
    Format settings, ReFrames : 5 frames
    Format settings, GOP : N=1
    Codec ID : avc1
    Codec ID/Info : Advanced Video Coding
    Duration : 1h 22mn
    Bit rate : 4 870 Kbps
    Width : 1 920 pixels
    Height : 816 pixels
    Display aspect ratio : 2.35:1
    Frame rate mode : Constant
    Frame rate : 25.000 fps
    Color space : YUV
    Chroma subsampling : 4:2:0
    Bit depth : 8 bits
    Scan type : Progressive
    Bits/(Pixel*Frame) : 0.124
    Stream size : 2.82 GiB (90%)
    Title : Main Program
    Language : Russian
    Encoded date : UTC 2016-09-23 21:59:16
    Tagged date : UTC 2016-09-23 21:59:21
    Color range : Limited
    Color primaries : BT.709
    Transfer characteristics : BT.709
    Matrix coefficients : BT.709
    Video #2
    ID : 5
    Format : JPEG
    Codec ID : jpeg
    Duration : 1h 22mn
    Bit rate mode : Variable
    Bit rate : 913 bps
    Width : 640 pixels
    Height : 272 pixels
    Display aspect ratio : 2.35:1
    Frame rate mode : Variable
    Frame rate : 0.003 fps
    Minimum frame rate : 0.002 fps
    Maximum frame rate : 0.003 fps
    Color space : YUV
    Chroma subsampling : 4:2:0
    Bit depth : 8 bits
    Compression mode : Lossy
    Bits/(Pixel*Frame) : 1.748
    Stream size : 483 KiB (0%)
    Title : Chapter Images
    Language : Russian
    Encoded date : UTC 2016-09-23 21:59:26
    Tagged date : UTC 2016-09-23 21:59:26
    Audio #1
    ID : 2
    Format : AAC
    Format/Info : Advanced Audio Codec
    Format profile : LC
    Codec ID : 40
    Duration : 1h 22mn
    Bit rate mode : Variable
    Bit rate : 158 Kbps
    Maximum bit rate : 220 Kbps
    Channel(s) : 2 channels
    Channel positions : Front: L R
    Sampling rate : 48.0 KHz
    Compression mode : Lossy
    Stream size : 93.4 MiB (3%)
    Title : Rusisian Stereo
    Language : Russian
    Encoded date : UTC 2016-09-23 21:59:16
    Tagged date : UTC 2016-09-23 21:59:22
    Audio #2
    ID : 3
    Format : AC-3
    Format/Info : Audio Coding 3
    Mode extension : CM (complete main)
    Format settings, Endianness : Big
    Codec ID : ac-3
    Duration : 1h 22mn
    Bit rate mode : Constant
    Bit rate : 384 Kbps
    Channel(s) : 6 channels
    Channel positions : Front: L C R, Side: L R, LFE
    Sampling rate : 48.0 KHz
    Bit depth : 16 bits
    Compression mode : Lossy
    Stream size : 227 MiB (7%)
    Title : Russian DD 5.1
    Language : Russian
    Encoded date : UTC 2016-09-23 21:59:16
    Tagged date : UTC 2016-09-23 21:59:21
    Menu #1
    00:00:00.000 : 1
    00:07:05.280 : 2
    00:13:48.880 : 3
    00:20:25.280 : 4
    00:27:00.320 : 5
    00:32:53.880 : 6
    00:38:38.640 : 7
    00:44:47.240 : 8
    00:50:52.240 : 9
    00:57:14.240 : 10
    01:02:50.760 : 11
    01:08:57.920 : 12
    01:14:26.720 : 13
    Menu #2
    ID : 4
    Codec ID : text
    Duration : 1h 22mn
    Language : Russian
    Encoded date : UTC 2016-09-23 21:59:22
    Tagged date : UTC 2016-09-23 21:59:22
    00:00:00.000 : 1
    00:07:05.280 : 2
    00:13:48.880 : 3
    00:20:25.280 : 4
    00:27:00.320 : 5
    00:32:53.880 : 6
    00:38:38.640 : 7
    00:44:47.240 : 8
    00:50:52.240 : 9
    00:57:14.240 : 10
    01:02:50.760 : 11
    01:08:57.920 : 12
    01:14:26.720 : 13
    Bit rate mode : VBR

    Скриншоты


    -

    Релиз подготовлен для просмотра на Apple TV, iPad, iPhone, iPod Touch.
    Для просмотра данного релиза на компьютере с ОС Windows рекомендуется использовать VLC media player
    Скачать .torrent

    Скачать торрент-файл бесплатно и на максимальной скорости!

    Как скачивать? · Что такое торрент? · Рейтинг и ограничения

    !ВНИМАНИЕ!
    Сайт не распространяет и не хранит электронные версии произведений, а занимается лишь лишь предоставлением доступа к создаваемому пользователями каталогу ссылок на торрент-файлы, которые содержат только списки хеш-сумм, убедительная просьба с жалобами обращаться напрямую к пользователю. Файлы для обмена на трекере предоставлены пользователями сайта, и администрация не несёт ответственности за их содержание. Просьба не заливать файлы, защищенные авторскими правами, а также файлы нелегального содержания!


    _________________
    [Профиль] [ЛС]
    Показать сообщения:    
    Ответить на тему

    Текущее время: Сегодня, в 14:16

    Часовой пояс: GMT + 2



    Вы не можете начинать темы
    Вы не можете отвечать на сообщения
    Вы не можете редактировать свои сообщения
    Вы не можете удалять свои сообщения
    Вы не можете голосовать в опросах
    Вы не можете прикреплять файлы к сообщениям
    Вы не можете скачивать файлы